MEGA NEWS Получи личный уникальный адрес сайта и защити себя от блокировок. Внимание количество ограничено!!!

iTunes

1+1

iTunes

мы

iTunes

1

iTunes

Чернобыль

iTunes

Ральф против интернета

Лицензия

ПШазам

Лицензия

Игра престолов

Лицензия

30
pack

ВАЖНО

!!Акция!!

Alien_RageХит недели

RePack

Resident Evil 21

ИГРА 18+

pack

RePack

Metro:Exodus

!!Акция!!

Alien_Rage

RePack

fifa19

RePack

Assassins Creed: Odyssey

RePack

NEED FOR SPEED™ PAYBACK

3 сезон

9 сезон

Бесстыжие 9 сезон

Все сериалы

все сериалы на PB.wtf

RePack

FAR CRY 5
Ребята, катастрофически не хватает 1900р. для оплаты серверов за АВГУСТ (всвязи с блокировками трафик упал в 3 раза), 1-2р., выручайте.
  

Носферату: Призрак ночи / Nosferatu: Phantom der Nacht (Вернер Херцог ) [1978, ужасы, BDRip] Профессиональный [многоголосый] pb.wtf

Носферату: Призрак ночи через торрент pb.wtf

Размер: 1.46 GB | Добавлен: 3 года назад | Торрент скачан:3 раза
Скачать  

30-09-2016 19:20 Носферату: Призрак ночи Скачать торрент  

Носферату: Призрак ночи / Nosferatu: Phantom der Nacht

Год выпуска: 1978
Страна: Германия (ФРГ), Франция
Жанр: ужасы
Продолжительность: 01:47:06
Перевод: Профессиональный [многоголосый] - Петербург 5 канал
Cубтитры: русские (внешние)
Режиссер: Вернер Херцог
В ролях: Клаус Кински (Count Dracula), Изабель Аджани (Lucy Harker), Бруно Ганц (Jonathan Harker), Роланд Топор (Renfield), Вальтер Ладенгаст (Dr. Van Helsing), Дэн ван Хузен (Warden), Ян Грот (Harbormaster), Карстен Бодинус (Schrader), Мартье Громанн (Mina), Рейк де Гойер (Town official), Клеменс Шайц (Clerk), Ло ван Хенсберген (Harbormaster's Assistent)
Описание:
Агента по недвижимости Джонатана Харкера отправляют в Трансильванию в замок графа Дракулы, который выразил желание приобрести себе особняк в Германии. По прибытию в замок графа, Харкер подписывает все необходимые бумаги, но при этом случайно роняет медальон с фотографией своей молодой жены Люси.
Рейтинг:

MPAA: PG - Рекомендуется присутствие родителей
Качество: BDRip
Формат: AVI
Видео: XviD, 720x384 (1.85:1), 1554 kbps, 23,976 fps, 0,235 bpp
Аудио №1: AC3 / 2.0 / 48 kHz / 192 kbps / - русский
Аудио №2: AC3 / 2.0 / 48 kHz / 192 kbps / - оригинал

Код:

General
Complete name                            : D:\торренты\Nosferatu.Prizrak.Nochi.1979.BDRip\Nosferatu.Prizrak.Nochi.1979.BDRip.avi
Format                                   : AVI
Format/Info                              : Audio Video Interleave
File size                                : 1.46 GiB
Duration                                 : 1 h 47 min
Overall bit rate                         : 1 953 kb/s
Writing application                      : VirtualDubMod 1.5.10.3 | www.virtualdub-fr.org || (build 2550/release)
Writing library                          : VirtualDubMod build 2550/release

Video
ID                                       : 0
Format                                   : MPEG-4 Visual
Format profile                           : Advanced Simple@L5
Format settings, BVOP                    : 1
Format settings, QPel                    : No
Format settings, GMC                     : No warppoints
Format settings, Matrix                  : Custom
Codec ID                                 : XVID
Codec ID/Hint                            : XviD
Duration                                 : 1 h 47 min
Bit rate                                 : 1 555 kb/s
Width                                    : 720 pixels
Height                                   : 384 pixels
Display aspect ratio                     : 1.85:1
Frame rate                               : 23.976 (23976/1000) FPS
Color space                              : YUV
Chroma subsampling                       : 4:2:0
Bit depth                                : 8 bits
Scan type                                : Progressive
Compression mode                         : Lossy
Bits/(Pixel*Frame)                       : 0.235
Stream size                              : 1.16 GiB (80%)
Writing library                          : XviD 64

Audio #1
ID                                       : 1
Format                                   : AC-3
Format/Info                              : Audio Coding 3
Format profile                           : Dolby Digital
Mode extension                           : CM (complete main)
Format settings, Endianness              : Big
Codec ID                                 : 2000
Duration                                 : 1 h 47 min
Bit rate mode                            : Constant
Bit rate                                 : 192 kb/s
Channel(s)                               : 2 channels
Channel positions                        : Front: L R
Sampling rate                            : 48.0 kHz
Frame rate                               : 31.250 FPS (1536 spf)
Compression mode                         : Lossy
Stream size                              : 147 MiB (10%)
Alignment                                : Split accross interleaves
Interleave, duration                     : 42  ms (1.00 video frame)
Interleave, preload duration             : 500  ms

Audio #2
ID                                       : 2
Format                                   : AC-3
Format/Info                              : Audio Coding 3
Mode extension                           : CM (complete main)
Format settings, Endianness              : Big
Codec ID                                 : 2000
Duration                                 : 1 h 47 min
Bit rate mode                            : Constant
Bit rate                                 : 192 kb/s
Channel(s)                               : 2 channels
Channel positions                        : Front: L R
Sampling rate                            : 48.0 kHz
Frame rate                               : 31.250 FPS (1536 spf)
Compression mode                         : Lossy
Stream size                              : 147 MiB (10%)
Alignment                                : Split accross interleaves
Interleave, duration                     : 42  ms (1.00 video frame)
Interleave, preload duration             : 500  ms

pb.wtf



Скачать Носферату: Призрак ночи через торрент http://i84.fastpic.ru/big/2016/1002/2c/a7886be057c64d321912dcdd71da232c.jpg Скачать фильм Носферату: Призрак ночи через торрент бесплантно в хорошем качестве Описание: Агента по недвижимости Джонатана Харкера отправляют в Трансильванию в замок графа Дракулы, который выразил желание приобрести ... 7 10 3
Торрент: Зарегистрирован [2016-09-30 19:20] · скачан: 3 раз
Статус: √ проверено
Размер: 1.46 GB
Как cкачать? Как скачать Носферату: Призрак ночи через торрент | qTorrent


>> Регистрируемся здесь <<






Отзывы и комментарии о схеме читаем и пишем здесь: ---> Отзывы и комментарии о схеме

Новые благодарочки в телеграм довольных пользователей:
скриншот   скриншот   скриншот   скриншот   скриншот
    Дорогой пользователь! Огромная просьба, поблагодарите релизера, оцените раздачу и оставьте свои комментарий, если Вы скачали Носферату: Призрак ночи через торрент бесплатно! Внесите свою лепту в развитие PiratBit!
    Комментировать посты могут только пользователи прошедшие не сложную регистрацию
    Показать сообщения:    

    Носферату: Призрак ночи через торрент
    Скачать бесплатно Носферату: Призрак ночи
    Носферату: Призрак ночи скачать торрент
    Носферату: Призрак ночи смотреть онлайн
    Cкачать фильм Носферату: Призрак ночи бесплатно
    Носферату: Призрак ночи скачать торрент в хорошем качестве
    Носферату: Призрак ночи смотреть онлайн бесплатно в хорошем качестве


    Вы не можете начинать темы
    Вы не можете отвечать на сообщения
    Вы не можете редактировать свои сообщения
    Вы не можете удалять свои сообщения
    Вы не можете голосовать в опросах
    Вы не можете прикреплять файлы к сообщениям
    Вы можете скачивать файлы