новый адрес
Ссылка на приватное зеркало всего за 1$. Внимание количество ограничено!!!

iTunes

1+1

iTunes

мы

iTunes

1

iTunes

Чернобыль

iTunes

Ральф против интернета

Лицензия

ПШазам

Лицензия

Оно 2

Лицензия

30
pack

Вам бонус

ВАЖНО

!!Акция!!

Alien_RageХит недели

RePack

Resident Evil 21

ИГРА 18+

pack

RePack

jed

!!Акция!!

Alien_Rage

RePack

fifa19

RePack

Assassins Creed: Odyssey

RePack

NEED FOR SPEED™ PAYBACK

3 сезон

9 сезон

Бесстыжие 9 сезон

Все сериалы

все сериалы на PB.wtf

RePack

FAR CRY 5
Ребята, катастрофически не хватает 1900р. для оплаты серверов за Октябрь (всвязи с блокировками трафик упал в 3 раза), 1-2р., выручайте.
  

Завтра была война (Юрий Кара ) [1987, драма, семейный, DVDRip-AVC] pb.wtf

Завтра была война через торрент pb.wtf

Размер: 1.37 GB | Добавлен: 3 года 1 мес. назад | Торрент скачан:6 раз
Скачать  

01-10-2016 05:47 Завтра была война Скачать торрент  

Завтра была война

Год выпуска: 1987
Страна: СССР
Жанр: драма, семейный

Продолжительность: 01:24:29
Перевод: Не требуется [Русский]
Режиссер: Юрий Кара
В ролях: Сергей Никоненко (директор школы), Нина Русланова (мать Искры), Вера Алентова (Валендра), Наталья Негода (Зина), Ирина Чериченко (Искра Полякова), Юлия Тархова (Вика Люберецкая), Владимир Заманский (Люберецкий), Радий Овчинников (Жора Ландыс), Сергей Столяров (Артём Шефер), Владислав Демченко (Остапчук), Александр Александров, Елена Мольченко
Описание:
Начало сороковых. Герои фильма - обычные советские старшеклассники. Они учатся в советской школе, стараются быть правильными и идейными комсомольцами-активистами. Но не всегда «правильность», внушаемая учителями, совпадает с внутренними убеждениями юных душ - им сложно смириться с тем, что их родные и любимые люди оказываются вдруг «врагами народа».

Качество: DVDRip-AVC
Формат: MKV
Видео: AVC, 720x544 (4:3), 1878 kbps, 25 fps, 0,192 bpp
Аудио: AC3 / 5.1 / 48 kHz / 448 kbps /

General
Unique ID Завтра была война.mkv
Format : Matroska
Format version : Version 2
File size : 1.37 GiB
Duration : 1 h 24 min
Overall bit rate : 2 328 kb/s
Encoded date : UTC 2016-09-10 04:02:37
Writing application : mkvmerge v6.1.0 ('Old Devil') built on Mar 4 2013 09:10:42
Writing library : libebml v1.3.0 + libmatroska v1.4.0

Video
ID : 1
Format : AVC
Format/Info : Advanced Video Codec
Format profile : High@L4.1
Format settings, CABAC : Yes
Format settings, ReFrames : 4 frames
Codec ID : V_MPEG4/ISO/AVC
Duration : 1 h 24 min
Bit rate : 1 878 kb/s
Width : 720 pixels
Height : 544 pixels
Display aspect ratio : 4:3
Frame rate mode : Constant
Frame rate : 25.000 FPS
Color space : YUV
Chroma subsampling : 4:2:0
Bit depth : 8 bits
Scan type : Progressive
Bits/(Pixel*Frame) : 0.192
Stream size : 1.08 GiB (79%)
Writing library : x264 core 130 r2273 b3065e6
Encoding settings : cabac=1 / ref=3 / deblock=1:-1:-1 / analyse=0x3:0x113 / me=umh / subme=10 / psy=1 / psy_rd=1.00:0.15 / mixed_ref=1 / me_range=32 / chroma_me=1 / trellis=2 / 8x8dct=1 / cqm=0 / deadzone=21,11 / fast_pskip=0 / chroma_qp_offset=-3 / threads=3 / lookahead_threads=1 / sliced_threads=0 / nr=0 / decimate=1 / interlaced=0 / bluray_compat=0 / constrained_intra=0 / bframes=3 / b_pyramid=2 / b_adapt=2 / b_bias=0 / direct=3 / weightb=1 / open_gop=0 / weightp=2 / keyint=250 / keyint_min=25 / scenecut=40 / intra_refresh=0 / rc_lookahead=40 / rc=2pass / mbtree=1 / bitrate=1878 / ratetol=1.0 / qcomp=0.60 / qpmin=0 / qpmax=69 / qpstep=4 / cplxblur=20.0 / qblur=0.5 / ip_ratio=1.40 / aq=1:1.00
Default : Yes
Forced : No

Audio
ID : 2
Format : AC-3
Format/Info : Audio Coding 3
Mode extension : CM (complete main)
Format settings, Endianness : Big
Codec ID : A_AC3
Duration : 1 h 24 min
Bit rate mode : Constant
Bit rate : 448 kb/s
Channel(s) : 6 channels
Channel positions : Front: L C R, Side: L R, LFE
Sampling rate : 48.0 kHz
Frame rate : 31.250 FPS (1536 spf)
Compression mode : Lossy
Stream size : 271 MiB (19%)
Default : Yes
Forced : No
Скриншоты:
pb.wtf



Скачать Завтра была война через торрент http://i4.imageban.ru/out/2016/10/01/19aba0522add82aa5cd6ed5ce6012c35.jpg Скачать фильм Завтра была война через торрент бесплантно в хорошем качестве Описание: Начало сороковых. Герои фильма - обычные советские старшеклассники. Они учатся в советской школе, стараются быть правильными и ... 10 10 2
Торрент: Зарегистрирован [2016-10-01 05:47] · скачан: 6 раз
Статус: √ проверено
Размер: 1.37 GB
Как cкачать? Как скачать Завтра была война через торрент | qTorrent

    Дорогой пользователь! Огромная просьба, поблагодарите релизера, оцените раздачу и оставьте свои комментарий, если Вы скачали Завтра была война через торрент бесплатно! Внесите свою лепту в развитие PiratBit!
    Комментировать посты могут только пользователи прошедшие не сложную регистрацию
    Показать сообщения:    

    Завтра была война через торрент
    Скачать бесплатно Завтра была война
    Завтра была война скачать торрент
    Завтра была война смотреть онлайн
    Cкачать фильм Завтра была война бесплатно
    Завтра была война скачать торрент в хорошем качестве
    Завтра была война смотреть онлайн бесплатно в хорошем качестве


    Вы не можете начинать темы
    Вы не можете отвечать на сообщения
    Вы не можете редактировать свои сообщения
    Вы не можете удалять свои сообщения
    Вы не можете голосовать в опросах
    Вы не можете прикреплять файлы к сообщениям
    Вы можете скачивать файлы