Ссылка на приватное зеркало нашего сайта всего за 1$. Внимание количество ограничено!!!

2 сезон

iTunes

1 сезон

1

iTunes

iTunes

iTunes

1 сезон

RePack

30

ИГРА 18+

pack

ВАЖНО

!!Акция!!

Alien_RageХит недели

RePack

MK11
pack

Забери бонус

RePack

jed

!!Акция!!

Alien_Rage

RePack

fifa19

RePack

Assassins Creed: Odyssey

RePack

NEED FOR SPEED™ PAYBACK

4 сезон

9 сезон

Бесстыжие 9 сезон

Все сериалы

все сериалы на PB.wtf

RePack

FAR CRY 5
  

Неваляшка / Сезон 1 / Серии 1-2 из 2 (Роман Просвирнин) [2016 , Россия, мелодрама, WEB-DLRip] pb.wtf

Неваляшка через торрент pb.wtf

Размер: 2.74 GB | Добавлен: 4 года назад | Торрент скачан:103 раза
Скачать  

02-10-2016 01:40 Неваляшка Скачать торрент  

Неваляшка


  • Год выпуска: 2016
  • Страна: Россия
  • Жанр: мелодрама
  • Продолжительность: 01:32:04 (Серия)
  • Перевод: Не требуется [Русский]
  • Режиссер: Роман Просвирнин
  • В ролях:

    Анастасия Мытражик (Валя), Дмитрий Миллер, Леонид Громов, Елена Валюшкина, Дмитрий Шаракоис, Роман Курцын, Мария Горбань, Александр Константинов, Николай Лунин (Толик), Ульяна Куликова (Аня), Анатолий Наумов (Тёма), Александр Булатов (Петя)


  • Вале скоро тридцать лет, но родители опекают ее, как ребенка, и контролируют каждый шаг. На примете у них есть и кандидат в мужья для дочери - занудный «ботаник» и маменькин сынок Сереженька. Подруга посмеивается над безвольной Валей и зовёт ее «неваляшкой». Однажды Валя решает вырваться из-под родительского крыла и начать жить самостоятельно. Но готова ли изнеженная неваляшка ко взрослой жизни?
  • Рейтинг:



  • Качество: WEB-DLRip
  • Формат: :AVI
  • Видео кодек: XviD
  • Аудио кодек: AC3
  • Видео: 720x400 (16:9), 1923 kbps, 25 fps, 0,267 bpp
  • Аудио: 2.0 / 48 kHz / 192 kbps
  • Релиз от:

    Код:

    General
    Complete name                            : H:\Неваляшка (2016).WEB-DLRip.RG.Russkie.serialy.&.Files-x\02.Неваляшка (2016).WEB-DLRip.RG.Russkie.serialy.&.Files-x.avi
    Format                                   : AVI
    Format/Info                              : Audio Video Interleave
    File size                                : 1.37 GiB
    Duration                                 : 1 h 32 min
    Overall bit rate                         : 2 126 kb/s
    Writing application                      : VirtualDubMod 1.5.10.3 | www.virtualdub-fr.org || (build 2550/release)
    Writing library                          : VirtualDubMod build 2550/release

    Video
    ID                                       : 0
    Format                                   : MPEG-4 Visual
    Format profile                           : Advanced Simple@L5
    Format settings, BVOP                    : 1
    Format settings, QPel                    : No
    Format settings, GMC                     : No warppoints
    Format settings, Matrix                  : Custom
    Codec ID                                 : XVID
    Codec ID/Hint                            : XviD
    Duration                                 : 1 h 32 min
    Bit rate                                 : 1 924 kb/s
    Width                                    : 720 pixels
    Height                                   : 400 pixels
    Display aspect ratio                     : 16:9
    Frame rate                               : 25.000 FPS
    Color space                              : YUV
    Chroma subsampling                       : 4:2:0
    Bit depth                                : 8 bits
    Scan type                                : Progressive
    Compression mode                         : Lossy
    Bits/(Pixel*Frame)                       : 0.267
    Stream size                              : 1.24 GiB (91%)
    Writing library                          : XviD 73

    Audio
    ID                                       : 1
    Format                                   : AC-3
    Format/Info                              : Audio Coding 3
    Mode extension                           : CM (complete main)
    Format settings, Endianness              : Big
    Codec ID                                 : 2000
    Duration                                 : 1 h 32 min
    Bit rate mode                            : Constant
    Bit rate                                 : 192 kb/s
    Channel(s)                               : 2 channels
    Channel positions                        : Front: L R
    Sampling rate                            : 48.0 kHz
    Frame rate                               : 31.250 FPS (1536 spf)
    Compression mode                         : Lossy
    Stream size                              : 126 MiB (9%)
    Alignment                                : Split accross interleaves
    Interleave, duration                     : 40  ms (1.00 video frame)
    Interleave, preload duration             : 500  ms


    Скриншоты:



    pb.wtf



  • Скачать Неваляшка через торрент http://i84.fastpic.ru/big/2016/1002/4b/b556e25fa7919edee5a5025eed30ad4b.jpg Скачать фильм Неваляшка через торрент бесплантно в хорошем качестве qw.png Вале скоро тридцать лет, но родители опекают ее, как ребенка, и контролируют каждый шаг. На примете у них есть и кандидат в мужья ... 10 10 2
    Торрент: Зарегистрирован [2016-10-02 01:40] · скачан: 103 раз
    Статус: √ проверено
    Размер: 2.74 GB
    Как cкачать? Как скачать Неваляшка через торрент | qTorrent

    % Раздел Тема Автор DL S | L
    Наши сериалы [ 4.35 GB ] Неваляшка / Сезон 1 / Серии 1-2 из 2 [2016 Россия WEB-DL 1080p] GEKADOL Скачать
    1 | 0

    28-11-2019 20:33  

    Отключить всю рекламу на сайте

      Дорогой пользователь! Огромная просьба, поблагодарите релизера, оцените раздачу и оставьте свои комментарий, если Вы скачали Неваляшка через торрент бесплатно! Внесите свою лепту в развитие PiratBit!
      Комментировать посты могут только пользователи прошедшие не сложную регистрацию
      Показать сообщения:    

      Неваляшка через торрент
      Скачать бесплатно Неваляшка
      Неваляшка скачать торрент
      Неваляшка смотреть онлайн
      Cкачать фильм Неваляшка бесплатно
      Неваляшка скачать торрент в хорошем качестве
      Неваляшка смотреть онлайн бесплатно в хорошем качестве


      Вы не можете начинать темы
      Вы не можете отвечать на сообщения
      Вы не можете редактировать свои сообщения
      Вы не можете удалять свои сообщения
      Вы не можете голосовать в опросах
      Вы не можете прикреплять файлы к сообщениям
      Вы можете скачивать файлы