Ссылка на приватное зеркало нашего сайта всего за 1$. Внимание количество ограничено!!!

2 сезон

iTunes

1 сезон

1

iTunes

iTunes

iTunes

1 сезон

RePack

30

ИГРА 18+

pack

ВАЖНО

!!Акция!!

Alien_RageХит недели

RePack

MK11
pack

Забери бонус

RePack

jed

!!Акция!!

Alien_Rage

RePack

fifa19

RePack

Assassins Creed: Odyssey

RePack

NEED FOR SPEED™ PAYBACK

4 сезон

9 сезон

Бесстыжие 9 сезон

Все сериалы

все сериалы на PB.wtf

RePack

FAR CRY 5
  

Неваляшка / Сезон 1 / Серии 1-2 из 2 (Роман Просвирнин) [2016 , Россия, мелодрама, WEB-DL 1080p] pb.wtf

Неваляшка через торрент pb.wtf

Размер: 4.35 GB | Добавлен: 4 года назад | Торрент скачан:88 раз
Скачать  

02-10-2016 01:58 Неваляшка Скачать торрент  

Неваляшка


  • Год выпуска: 2016
  • Страна: Россия
  • Жанр: мелодрама
  • Продолжительность: 01:31:36 (Серия)
  • Перевод: Не требуется [Русский]
  • Режиссер: Роман Просвирнин
  • В ролях:

    Анастасия Мытражик (Валя), Дмитрий Миллер, Леонид Громов, Елена Валюшкина, Дмитрий Шаракоис, Роман Курцын, Мария Горбань, Александр Константинов, Николай Лунин (Толик), Ульяна Куликова (Аня), Анатолий Наумов (Тёма), Александр Булатов (Петя)


  • Вале скоро тридцать лет, но родители опекают ее, как ребенка, и контролируют каждый шаг. На примете у них есть и кандидат в мужья для дочери - занудный «ботаник» и маменькин сынок Сереженька. Подруга посмеивается над безвольной Валей и зовёт ее «неваляшкой». Однажды Валя решает вырваться из-под родительского крыла и начать жить самостоятельно. Но готова ли изнеженная неваляшка ко взрослой жизни?
  • Рейтинг:



  • Качество: WEB-DL 1080p
  • Формат: :MKV
  • Видео кодек: AVC
  • Аудио кодек: AC3
  • Видео: 1920x1080 (16:9), 3188 kbps, 25 fps, 0,062 bpp
  • Аудио: unknown / 2.0 / 44 kHz / 192 kbps /
  • Релиз от:

    Код:

    General
    Unique ID                                : 109372429053108325555517516623359567815 (0x52485D163992B49319EB01113FA0E7C7)
    Complete name                            : H:\Неваляшка.WEB-DL (1080p).Files-x\01.Неваляшка.WEB-DL (1080p).Files-x.mkv
    Format                                   : Matroska
    Format version                           : Version 4 / Version 2
    File size                                : 2.21 GiB
    Duration                                 : 1 h 31 min
    Overall bit rate                         : 3 450 kb/s
    Writing application                      : Lavf56.36.100
    Writing library                          : Lavf56.36.100 / Lavf56.36.100

    Video
    ID                                       : 1
    Format                                   : AVC
    Format/Info                              : Advanced Video Codec
    Format profile                           : High@L4
    Format settings, CABAC                   : Yes
    Format settings, ReFrames                : 2 frames
    Codec ID                                 : V_MPEG4/ISO/AVC
    Duration                                 : 1 h 31 min
    Bit rate                                 : 3 189 kb/s
    Width                                    : 1 920 pixels
    Height                                   : 1 080 pixels
    Display aspect ratio                     : 16:9
    Frame rate mode                          : Constant
    Frame rate                               : 25.000 FPS
    Color space                              : YUV
    Chroma subsampling                       : 4:2:0
    Bit depth                                : 8 bits
    Scan type                                : Progressive
    Bits/(Pixel*Frame)                       : 0.062
    Stream size                              : 2.04 GiB (92%)
    Default                                  : Yes
    Forced                                   : No
    Color range                              : Limited
    Color primaries                          : BT.709
    Transfer characteristics                 : BT.709
    Matrix coefficients                      : BT.709

    Audio
    ID                                       : 2
    Format                                   : AC-3
    Format/Info                              : Audio Coding 3
    Mode extension                           : CM (complete main)
    Format settings, Endianness              : Big
    Codec ID                                 : A_AC3
    Duration                                 : 1 h 31 min
    Bit rate mode                            : Constant
    Bit rate                                 : 192 kb/s
    Channel(s)                               : 2 channels
    Channel positions                        : Front: L R
    Sampling rate                            : 44.1 kHz
    Frame rate                               : 28.711 FPS (1536 spf)
    Compression mode                         : Lossy
    Stream size                              : 126 MiB (6%)
    Language                                 : unknown
    Default                                  : Yes
    Forced                                   : No


    Скриншоты:



    pb.wtf



  • Скачать Неваляшка через торрент http://i84.fastpic.ru/big/2016/1002/c1/b80ce530e5cd7916182aef103296a9c1.jpg Скачать фильм Неваляшка через торрент бесплантно в хорошем качестве qw.png Вале скоро тридцать лет, но родители опекают ее, как ребенка, и контролируют каждый шаг. На примете у них есть и кандидат в мужья ... 8.8 10 5
    Info! Серебряная раздача, засчитывается только 50% скачанного.
    Торрент: Зарегистрирован [2016-10-02 01:58] · скачан: 88 раз
    Статус: √ проверено
    Размер: 4.35 GB
    Как cкачать? Как скачать Неваляшка через торрент | qTorrent

    % Раздел Тема Автор DL S | L
    Наши сериалы [ 2.74 GB ] Неваляшка / Сезон 1 / Серии 1-2 из 2 [2016 Россия WEB-DLRip] GEKADOL Скачать
    1 | 0

    28-11-2019 20:33  

    Отключить всю рекламу на сайте

    07-10-2016 21:12 Неваляшка Скачать торрент  

    Интересный сериал pb.wtf



      Дорогой пользователь! Огромная просьба, поблагодарите релизера, оцените раздачу и оставьте свои комментарий, если Вы скачали Неваляшка через торрент бесплатно! Внесите свою лепту в развитие PiratBit!
      Комментировать посты могут только пользователи прошедшие не сложную регистрацию
      Показать сообщения:    

      Неваляшка через торрент
      Скачать бесплатно Неваляшка
      Неваляшка скачать торрент
      Неваляшка смотреть онлайн
      Cкачать фильм Неваляшка бесплатно
      Неваляшка скачать торрент в хорошем качестве
      Неваляшка смотреть онлайн бесплатно в хорошем качестве


      Вы не можете начинать темы
      Вы не можете отвечать на сообщения
      Вы не можете редактировать свои сообщения
      Вы не можете удалять свои сообщения
      Вы не можете голосовать в опросах
      Вы не можете прикреплять файлы к сообщениям
      Вы можете скачивать файлы