Ссылка на приватное зеркало нашего сайта всего за 1$. Внимание количество ограничено!!!

2 сезон

iTunes

1 сезон

1

2 сезон

2 сезон

iTunes

1 сезон

RePack

30

Ultimate

ВАЖНО

ИГРА 18+

pack

RePack

MK11
pack

Забери бонус

RePack

jed

!!Акция!!

Alien_Rage

RePack

fifa19

RePack

Assassins Creed: Odyssey

RePack

NEED FOR SPEED™ PAYBACK

4 сезон

9 сезон

Бесстыжие 9 сезон

Все сериалы

все сериалы на PB.wtf

RePack

FAR CRY 5
  

Берлинский отдел / Берлинский вокзал / Berlin Station / Сезон 1 / Серии 1-10 из 10 (Джузеппе Капотонди / Giuseppe Capotondi, Джон Дэвид Коулз / John David Coles) [2016, США, Германия, триллер, WEBRip-AVC, HDTVRip-AVC] MVO [BaibaKo] pb.wtf

Берлинский отдел через торрент pb.wtf

Размер: 9.53 GB | Добавлен: 3 года 11 мес. назад | Торрент скачан:85 раз
Скачать  

02-10-2016 04:53 Берлинский отдел Скачать торрент  

Берлинский отдел / Берлинский вокзал / Berlin Station


  • Год выпуска: 2016
  • Страна: США, Германия
  • Жанр: триллер
  • Продолжительность: 00:52:18 (Серия)
  • Перевод: Профессиональный многоголосый [BaibaKo]
  • Режиссер: Джузеппе Капотонди / Giuseppe Capotondi, Джон Дэвид Коулз / John David Coles, Михаэль Р. Роскам / Michaël R. Roskam
  • В ролях:

    Ричард Армитедж (Daniel Miller), Ричард Диллэйн (Gerald Ellman), Мишель Форбс (Valerie Edwards), Рис Иванс (Hector DeJean), Эрл Винсент Шервуд II (Tom - CIA Officer), Ричард Дженкинс (Steven Frost), Лиленд Орсер (Robert Kirsch), Роджер Рингроуз (Johnson), Бернхард Шюц (Hans Richter), Тэмлин Томита (Sandra Abe), Мина Тандер (Esther Krug), Александр Яссин (CIA Agent)


  • Главный герой сериала Даниэль Мейер, недавно получивший должность следователя, прибывает в резидентуру ЦРУ в Берлине, чтобы раскрыть источник утечки, который снабжает информацией доносчика. Под руководством опытного следователя-ветерана Гектора ДеЖана - упрямого агента с мрачным очарованием, который работает на шефа резидентуры Стивена Фроста - Дэниел учится правилам игры в суровом мире профессиональных агентов, полном опасностей, предательства, моральных компромиссов.
  • Рейтинг:



  • Качество: WEBRip-AVC, HDTVRip-AVC
  • Формат: :MPEG-4
  • Видео кодек: AVC
  • Аудио кодек: AC3
  • Видео: 1024x576 (16:9), 2000 kbps, 23,976 fps, 0,141 bpp
  • Аудио №1: русский / 2.0 / 48 kHz / 384 kbps / 16 bit |[BaibaKo]|
  • Аудио №2: английский / 2.0 / 48 kHz / 384 kbps / 16 bit
  • Релиз от: GEKADOL

    Внимание! Раздача ведётся путём добавления новых серий; при каждом добавлении создаётся новый торрент. Чтобы начать докачку новой серии, пользователям необходимо сделать следующее:
    (1) остановить скачивание,
    (2) удалить старый торрент у себя из клиента (старые серии удалять не надо),
    (3) скачать новый торрент и запустить его у себя в клиенте вместо старого, при этом указать клиенту путь в старую папку куда и должно происходить скачивание новых серий.
    Ваш клиент при этом должен произвести хеширование (проверку) старой папки (если не производит сам - помогите ему сделать это), и будет докачивать только те серии которых у вас ещё нет. Старые серии при этом не удаляются, а продолжают раздаваться!
    Eсли вы уже удалили старые серии, то предотвратить повторную закачку старых серий можно, отжав галочку в соответствующих местах при запуске нового торрента. По возможности, желательно не удалять старые серии как можно дольше чтобы релизёр не столько продолжал раздавать старые серии, а смог сконцентрироваться на новых.

    General
    Complete name : H:\Берлинский отдел (Berlin Station 1)\Berlin.Station.s01e01.WEBRip-AVC.Rus.Eng.BaibaKo.tv.mp4
    Format : MPEG-4
    Format profile : Base Media
    Codec ID : isom (isom/iso2/avc1/mp41)
    File size : 1 009 MiB
    Duration : 52 min
    Overall bit rate : 2 696 kb/s
    Writing application : XviD4PSP 7.0.299 DAILY
    HDVideo : Yes
    encoding_info : MATROSKA / WEBM > MP4 Произвольный / H264 > X264 CBR 2000kbps HQ / AC3 > AC3 CBR 384kbps / AC3 > AC3 CBR 384kbps

    Video
    ID : 1
    Format : AVC
    Format/Info : Advanced Video Codec
    Format profile : High@L3.1
    Format settings, CABAC : Yes
    Format settings, ReFrames : 4 frames
    Codec ID : avc1
    Codec ID/Info : Advanced Video Coding
    Duration : 52 min
    Bit rate : 2 000 kb/s
    Width : 1 024 pixels
    Height : 576 pixels
    Display aspect ratio : 16:9
    Frame rate mode : Constant
    Frame rate : 23.976 (24000/1001) FPS
    Color space : YUV
    Chroma subsampling : 4:2:0
    Bit depth : 8 bits
    Scan type : Progressive
    Bits/(Pixel*Frame) : 0.141
    Stream size : 719 MiB (71%)
    Writing library : x264 core 148 r2705M 3f5ed56
    Encoding settings : cabac=1 / ref=3 / deblock=1:-1:-1 / analyse=0x3:0x133 / me=hex / subme=7 / psy=1 / psy_rd=1.00:0.20 / mixed_ref=1 / me_range=16 / chroma_me=1 / trellis=1 / 8x8dct=1 / cqm=0 / deadzone=21,11 / fast_pskip=1 / chroma_qp_offset=-3 / threads=5 / lookahead_threads=1 / sliced_threads=0 / nr=0 / decimate=1 / interlaced=0 / bluray_compat=0 / constrained_intra=0 / bframes=3 / b_pyramid=2 / b_adapt=2 / b_bias=0 / direct=3 / weightb=1 / open_gop=0 / weightp=2 / keyint=230 / keyint_min=23 / scenecut=40 / intra_refresh=0 / rc_lookahead=40 / rc=cbr / mbtree=1 / bitrate=2000 / ratetol=1.0 / qcomp=0.60 / qpmin=0 / qpmax=69 / qpstep=4 / vbv_maxrate=2000 / vbv_bufsize=2000 / nal_hrd=none / filler=0 / ip_ratio=1.40 / aq=1:1.00

    Audio #1
    ID : 2
    Format : AC-3
    Format/Info : Audio Coding 3
    Mode extension : CM (complete main)
    Format settings, Endianness : Big
    Codec ID : ac-3
    Duration : 52 min
    Bit rate mode : Constant
    Bit rate : 384 kb/s
    Channel(s) : 2 channels
    Channel positions : Front: L R
    Sampling rate : 48.0 kHz
    Frame rate : 31.250 FPS (1536 spf)
    Bit depth : 16 bits
    Compression mode : Lossy
    Stream size : 144 MiB (14%)
    Language : Russian
    Default : Yes
    Alternate group : 1

    Audio #2
    ID : 3
    Format : AC-3
    Format/Info : Audio Coding 3
    Mode extension : CM (complete main)
    Format settings, Endianness : Big
    Codec ID : ac-3
    Duration : 52 min
    Bit rate mode : Constant
    Bit rate : 384 kb/s
    Channel(s) : 2 channels
    Channel positions : Front: L R
    Sampling rate : 48.0 kHz
    Frame rate : 31.250 FPS (1536 spf)
    Bit depth : 16 bits
    Compression mode : Lossy
    Stream size : 144 MiB (14%)
    Language : English
    Default : No
    Alternate group : 1



    Скриншоты:
    скриншот   скриншот   скриншот   скриншот   скриншот   скриншот   скриншот  
    скриншот  

    Раздача ведётся путём добавления новых серий. Добавлена 10 серия (23.12.2016).Просьба перекачать торрент файл.

    pb.wtf



  • Скачать Берлинский отдел через торрент http://i85.fastpic.ru/big/2016/1002/ba/0705ba0036b289505ccc20afbf6d6dba.jpg Скачать фильм Берлинский отдел через торрент бесплантно в хорошем качестве qw.png Главный герой сериала Даниэль Мейер, недавно получивший должность следователя, прибывает в резидентуру ЦРУ в Берлине, чтобы ... 9.1 10 10
    Торрент: Зарегистрирован [2016-12-23 00:42] · скачан: 85 раз
    Статус: √ проверено
    Размер: 9.53 GB
    Как cкачать? Как скачать Берлинский отдел через торрент | qTorrent



    Последний раз редактировалось: GEKADOL (2016-12-23 00:57), всего редактировалось 6 раз(а)

    28-11-2019 20:33  

    Отключить всю рекламу на сайте

    16-11-2016 12:18 Берлинский отдел Скачать торрент  

    рекламу вырезаете ? видел что на всех релизах от BaibaKo реклама естьpb.wtf



    16-11-2016 12:55 Берлинский отдел Скачать торрент  

    killermax2013 писал(а):

    рекламу вырезаете ? видел что на всех релизах от BaibaKo реклама есть

    Нет, меня не раздражает!!! Люди зарабатывают!!! Вам, зачем это? pb.wtf



    16-11-2016 13:03 Берлинский отдел Скачать торрент  

    GEKADOL писал(а):

    killermax2013 писал(а):

    рекламу вырезаете ? видел что на всех релизах от BaibaKo реклама есть

    Нет, меня не раздражает!!! Люди зарабатывают!!! Вам, зачем это?

    да просто на моих раздачах модераторы часто говорят что нужно указывать про рекламуpb.wtf



      Дорогой пользователь! Огромная просьба, поблагодарите релизера, оцените раздачу и оставьте свои комментарий, если Вы скачали Берлинский отдел через торрент бесплатно! Внесите свою лепту в развитие PiratBit!
      Комментировать посты могут только пользователи прошедшие не сложную регистрацию
      Показать сообщения:    

      Берлинский отдел через торрент
      Скачать бесплатно Берлинский отдел
      Берлинский отдел скачать торрент
      Берлинский отдел смотреть онлайн
      Cкачать фильм Берлинский отдел бесплатно
      Берлинский отдел скачать торрент в хорошем качестве
      Берлинский отдел смотреть онлайн бесплатно в хорошем качестве


      Вы не можете начинать темы
      Вы не можете отвечать на сообщения
      Вы не можете редактировать свои сообщения
      Вы не можете удалять свои сообщения
      Вы не можете голосовать в опросах
      Вы не можете прикреплять файлы к сообщениям
      Вы можете скачивать файлы