Доктор Стрэндж

Лицензия

Добыча

Дубляж

Уэнсдэй

1 сезон

Тор

Дубляж

В эфире

Дубляж

Там, где раки поют

MVO

Властелин колец

1 сезон

Deluxe

pack

Рекомендуем

30

Пиратка

ВАЖНО

ВАЖНО

Ghostwire

Пиратка

jed

RePack

nioh2

RePack

RDR2

RePack

NEED FOR SPEED™ PAYBACK

RePack

скачать торрент

Кинопоиск HD

Острые козырьки 6 сезон

6 сезон

FAR CRY 6

RePack

скачать торрент

Лицензия

скачать торрент

MVO

1

1 сезон

скачать торрент

1 сезон

скачать торрент

Лицензия

  

Труп моего врага / Corps de mon ennemi, Le (Анри Вернёй) [1976, триллер, драма, криминал, детектив, BDRip 1080p ] MVO

Труп моего врага через торрент pb.wtf

Размер: 16.59 GB | Добавлен: 6 лет 2 мес. назад | Торрент скачан:13 раз
Смотреть онлайн | Скачать   

02-10-2016 05:30 Труп моего врага Скачать торрент  

Название: Труп моего врага
Оригинальное название: Corps de mon ennemi, Le
Год выпуска: 1976
Страна: Франция
Жанр: триллер, драма, криминал, детектив
Продолжительность: 02:01:17
Перевод: профессиональный многоголосый

Режиссёр: Анри Вернёй

В ролях: Жан-Поль Бельмондо, Бернар Блие, Мари-Франс Пизье, Шарль Жерар, Даниэль Ивернель, Клод Броссе, Мишель Бон, Франсуа Перро, Рене Лефевр, Николь Гарсиа

Описание: Отсидев семь лет в тюрьме по ложному обвинению, Франсуа Леклер возвращается в родной городок. Он не может простить своих обидчиков, из-за которых потерял несколько лет жизни и объявляет войну своей бывшей возлюбленной и её отцу...



Качество: BDRip 1080p Сравнение с исходником
Формат: MKV
Видео: MPEG-4 AVC, 18.6 Mбит/с, 1800x1080, 24 кадра/с
Аудио 1: русский, AC3, 192 kbps, 2 ch, 48 kHz [профессиональный многоголосый, Останкино]
Аудио 2: французский, DTS, 768 kbps, 2 ch, 48 kHz [оригинал]
Общее
Уникальный идентификатор : 171987687796258665630739373872050092123 (0x81639FB14F28201C85A9C9792778385B)
Полное имя : D:\Video\Труп моего врага.1976.BDRip.1080p.mkv
Формат : Matroska
Версия формата : Version 4 / Version 2
Размер файла : 16,6 Гбайт
Продолжительность : 2 ч. 1 м.
Общий поток : 19,6 Мбит/сек
Дата кодирования : UTC 2016-10-02 01:28:23
Программа кодирования : mkvmerge v8.2.0 ('World of Adventure') 64bit
Библиотека кодирования : libebml v1.3.1 + libmatroska v1.4.2

Видео
Идентификатор : 1
Формат : AVC
Формат/Информация : Advanced Video Codec
Профиль формата : [email protected]
Параметр CABAC формата : Да
Параметр ReFrames формата : 4 кадра
Идентификатор кодека : V_MPEG4/ISO/AVC
Продолжительность : 2 ч. 1 м.
Битрейт : 18,6 Мбит/сек
Ширина : 1800 пикселей
Высота : 1080 пикселей
Соотношение сторон : 5:3
Режим частоты кадров : Постоянный
Частота кадров : 24,000 кадра/сек
Цветовое пространство : YUV
Субдискретизация насыщенности : 4:2:0
Битовая глубина : 8 бит
Тип развёртки : Прогрессивная
Бит/(Пиксели*Кадры) : 0.399
Размер потока : 15,8 Гбайт (95%)
Библиотека кодирования : x264 core 146 r2538 121396c
Настройки программы : cabac=1 / ref=4 / deblock=1:-3:-3 / analyse=0x3:0x113 / me=umh / subme=10 / psy=1 / psy_rd=1.00:0.15 / mixed_ref=1 / me_range=32 / chroma_me=1 / trellis=2 / 8x8dct=1 / cqm=0 / deadzone=21,11 / fast_pskip=1 / chroma_qp_offset=-3 / threads=6 / lookahead_threads=1 / sliced_threads=0 / nr=0 / decimate=1 / interlaced=0 / bluray_compat=0 / constrained_intra=0 / bframes=10 / b_pyramid=2 / b_adapt=2 / b_bias=0 / direct=1 / weightb=1 / open_gop=0 / weightp=2 / keyint=230 / keyint_min=23 / scenecut=40 / intra_refresh=0 / rc_lookahead=40 / rc=crf / mbtree=0 / crf=19.1 / qcomp=0.60 / qpmin=0 / qpmax=69 / qpstep=4 / vbv_maxrate=40000 / vbv_bufsize=50000 / crf_max=0.0 / nal_hrd=none / filler=0 / ip_ratio=1.40 / pb_ratio=1.30 / aq=1:1.00
Язык : French
Default : Да
Forced : Нет

Аудио #1
Идентификатор : 2
Формат : AC-3
Формат/Информация : Audio Coding 3
Расширение режима : CM (complete main)
Параметр Endianness формата : Big
Идентификатор кодека : A_AC3
Продолжительность : 2 ч. 1 м.
Вид битрейта : Постоянный
Битрейт : 192 Кбит/сек
Каналы : 2 канала
Расположение каналов : Front: L R
Частота : 48,0 КГц
Частота кадров : 31,250 кадров/сек (1536 spf)
Метод сжатия : С потерями
Размер потока : 166 Мбайт (1%)
Заголовок : MVO (Останкино)
Язык : Russian
Default : Да
Forced : Нет

Аудио #2
Идентификатор : 3
Формат : DTS
Формат/Информация : Digital Theater Systems
Режим : 16
Параметр Endianness формата : Big
Идентификатор кодека : A_DTS
Продолжительность : 2 ч. 1 м.
Вид битрейта : Постоянный
Битрейт : 768 Кбит/сек
Каналы : 2 канала
Расположение каналов : Front: L R
Частота : 48,0 КГц
Частота кадров : 93,750 кадра/сек (512 spf)
Битовая глубина : 16 бит
Метод сжатия : С потерями
Размер потока : 666 Мбайт (4%)
Заголовок : original
Язык : French
Default : Нет
Forced : Нет



Скачать Труп моего врага через торрент http://s019.radikal.ru/i640/1609/62/1a933bd8fd53.jpg Скачать, смотреть онлайн Труп моего врага бесплантно в хорошем качестве Описание: Отсидев семь лет в тюрьме по ложному обвинению, Франсуа Леклер возвращается в родной городок. Он не может простить своих ... 10 10 3
Info! Золотая раздача, скачанное не засчитывается.
Торрент: Зарегистрирован [2016-10-02 05:30] · скачан: 13 раз
Статус: √ проверено
Размер: 16.59 GB
Как cкачать? Как скачать Труп моего врага через торрент | UTorrent

% Раздел Тема Автор DL S | L
Фильмы (Blu-ray, BD-Remux, HDDVD) [ 33.66 GB ] Труп моего врага / Le corps de mon ennemi | MVO | 1080p Russian Mafia Скачать
1 | 0
Фильмы [HD 720p, 1080p] (Хороший звук DUB, MVO) [ 5.11 GB ] Труп моего врага / Corps de mon ennemi, Le | MVO | 720p msltel Скачать
1 | 1
Фильмы до 2000 г. [ 1.46 GB ] Труп моего врага / Le Corps De Mon Ennemi | MVO | DVDRip Assasinca Скачать
1 | 0

28-11-2019 20:33  


Отключить вcю реклaмy на сайте, в т.ч. и в плеере онлайн просмотра!

    Дорогой пользователь! Огромная просьба, поблагодарите релизера, оцените раздачу и оставьте свои комментарий, если Вы скачали Труп моего врага через торрент бесплатно!!
    Комментировать посты могут только пользователи прошедшие не сложную регистрацию
    Показать сообщения:    


    Труп моего врага через торрент
    Скачать бесплатно Труп моего врага
    Труп моего врага скачать торрент
    Труп моего врага смотреть онлайн
    Cкачать фильм Труп моего врага бесплатно
    Труп моего врага скачать торрент в хорошем качестве
    Труп моего врага смотреть онлайн бесплатно в хорошем качестве
    Вы не можете начинать темы
    Вы не можете отвечать на сообщения
    Вы не можете редактировать свои сообщения
    Вы не можете удалять свои сообщения
    Вы не можете голосовать в опросах
    Вы не можете прикреплять файлы к сообщениям
    Вы можете скачивать файлы
    Труп моего врага / Corps de mon ennemi, Le [1976, триллер, драма, криминал, детектив, BDRip 1080p ] MVO смотреть онлайн, скачать торрент picoco.icu