новый адрес
Ссылка на приватное зеркало всего за 1$. Внимание количество ограничено!!!

iTunes

1+1

iTunes

мы

iTunes

1

iTunes

Чернобыль

iTunes

Ральф против интернета

Лицензия

ПШазам

Лицензия

Оно 2

Лицензия

30
pack

Вам бонус

ВАЖНО

!!Акция!!

Alien_RageХит недели

RePack

Resident Evil 21

ИГРА 18+

pack

RePack

jed

!!Акция!!

Alien_Rage

RePack

fifa19

RePack

Assassins Creed: Odyssey

RePack

NEED FOR SPEED™ PAYBACK

3 сезон

9 сезон

Бесстыжие 9 сезон

Все сериалы

все сериалы на PB.wtf

RePack

FAR CRY 5
Ребята, катастрофически не хватает 1900р. для оплаты серверов за Октябрь (всвязи с блокировками трафик упал в 3 раза), 1-2р., выручайте.
  

Вечерний лабиринт (Борис Бушмелёв ) [1980, комедия, SATRip-AVC] pb.wtf

Вечерний лабиринт через торрент pb.wtf

Размер: 1.04 GB | Добавлен: 3 года 1 мес. назад | Торрент скачан:29 раз
Скачать  

02-10-2016 11:46 Вечерний лабиринт Скачать торрент  

Вечерний лабиринт

Год выпуска: 1980
Страна: СССР
Жанр: комедия
Продолжительность: 01:10:19
Перевод: Не требуется [Русский]
Режиссер: Борис Бушмелёв
В ролях: Владимир Басов (шеф), Виктор Ильичев (Алексеев), Татьяна Васильева (Элеонора), Александр Лазарев (начальник), Валентина Талызина (дежурная по этажу), Николай Парфёнов (гардеробщик), Татьяна Новицкая (певица в ресторане), Александр Пашутин (официант), Георгий Светлани (лифтёр), Михаил Кокшенов (швейцар), Лев Поляков (метрдотель), Анатолий Обухов (постоялец)
Описание:
Некая творческая группа решает открыть в одном из областных городов увеселительный аттракцион, под названием «Лабиринт». Для этого начальство направляет туда несколько своих сотрудников для того, чтобы они выяснили, как лучше осуществить эту затею.
Коллеги приезжают в город, селятся в гостинице и неожиданно сталкиваются с целой горой всяких неприятностей. Им ничего не остается, как искать достойный выход из сложившейся ситуации…

Качество: SATRip-AVC
Формат: MKV
Видео: AVC, 690@736x346 (2.127), 1883 kbps, 25 fps, 0,316 bpp
Аудио: русский / AC3 / 2.0 / 48 kHz / 192 kbps /

General
Unique ID Вечерний лабиринт.1980.mkv
Format : Matroska
Format version : Version 2
File size : 1.04 GiB
Duration : 1 h 10 min
Overall bit rate : 2 117 kb/s
Encoded date : UTC 2016-09-07 10:50:40
Writing application : mkvmerge v5.8.0 ('No Sleep / Pillow') built on Sep 2 2012 15:37:04
Writing library : libebml v1.2.3 + libmatroska v1.3.0

Video
ID : 1
Format : AVC
Format/Info : Advanced Video Codec
Format profile : High@L4.1
Format settings, CABAC : Yes
Format settings, ReFrames : 16 frames
Codec ID : V_MPEG4/ISO/AVC
Duration : 1 h 10 min
Bit rate : 1 883 kb/s
Width : 690 pixels
Height : 346 pixels
Display aspect ratio : 2.127
Frame rate mode : Constant
Frame rate : 25.000 FPS
Color space : YUV
Chroma subsampling : 4:2:0
Bit depth : 8 bits
Scan type : Progressive
Bits/(Pixel*Frame) : 0.316
Stream size : 947 MiB (89%)
Title : Вечерний лабиринт.1980
Writing library : x264 core 148 r2705kMod 3f5ed56
Encoding settings : cabac=1 / ref=16 / deblock=1:-2:-1 / analyse=0x3:0x133 / me=umh / subme=11 / psy=1 / fade_compensate=0.00 / psy_rd=1.03:0.10 / mixed_ref=1 / me_range=32 / chroma_me=1 / trellis=2 / 8x8dct=1 / cqm=0 / deadzone=21,11 / fast_pskip=1 / chroma_qp_offset=-3 / threads=11 / lookahead_threads=1 / sliced_threads=0 / nr=0 / decimate=1 / interlaced=0 / bluray_compat=0 / stitchable=1 / constrained_intra=0 / fgo=0 / bframes=8 / b_pyramid=2 / b_adapt=2 / b_bias=0 / direct=1 / weightb=1 / open_gop=0 / weightp=2 / keyint=250 / keyint_min=25 / scenecut=40 / intra_refresh=0 / rc_lookahead=40 / rc=crf / mbtree=0 / crf=17.0000 / qcomp=0.65 / qpmin=0 / qpmax=69 / qpstep=4 / vbv_maxrate=50000 / vbv_bufsize=62500 / crf_max=0.0 / nal_hrd=none / filler=0 / ip_ratio=1.30 / pb_ratio=1.20 / aq=3:0.70
Language : Russian
Default : Yes
Forced : No
Color range : Limited
Color primaries : BT.601 PAL
Transfer characteristics : BT.470 System B, BT.470 System G
Matrix coefficients : BT.601

Audio
ID : 2
Format : AC-3
Format/Info : Audio Coding 3
Mode extension : CM (complete main)
Format settings, Endianness : Big
Codec ID : A_AC3
Duration : 1 h 10 min
Bit rate mode : Constant
Bit rate : 192 kb/s
Channel(s) : 2 channels
Channel positions : Front: L R
Sampling rate : 48.0 kHz
Frame rate : 31.250 FPS (1536 spf)
Compression mode : Lossy
Stream size : 96.6 MiB (9%)
Title : AC-3; 16 bit 48 Khz; 2.0 ch 192 Kbps; CBR
Language : Russian
Default : Yes
Forced : No
Скриншоты:
pb.wtf



Скачать Вечерний лабиринт через торрент http://i6.imageban.ru/out/2016/10/02/62beb1f802761860df1b1badd3fedd4c.jpg Скачать фильм Вечерний лабиринт через торрент бесплантно в хорошем качестве Описание: Некая творческая группа решает открыть в одном из областных городов увеселительный аттракцион, под названием «Лабиринт». Для ... 10 10 2
Торрент: Зарегистрирован [2016-10-02 11:46] · скачан: 29 раз
Статус: √ проверено
Размер: 1.04 GB
Как cкачать? Как скачать Вечерний лабиринт через торрент | qTorrent

    Дорогой пользователь! Огромная просьба, поблагодарите релизера, оцените раздачу и оставьте свои комментарий, если Вы скачали Вечерний лабиринт через торрент бесплатно! Внесите свою лепту в развитие PiratBit!
    Комментировать посты могут только пользователи прошедшие не сложную регистрацию
    Показать сообщения:    

    Вечерний лабиринт через торрент
    Скачать бесплатно Вечерний лабиринт
    Вечерний лабиринт скачать торрент
    Вечерний лабиринт смотреть онлайн
    Cкачать фильм Вечерний лабиринт бесплатно
    Вечерний лабиринт скачать торрент в хорошем качестве
    Вечерний лабиринт смотреть онлайн бесплатно в хорошем качестве


    Вы не можете начинать темы
    Вы не можете отвечать на сообщения
    Вы не можете редактировать свои сообщения
    Вы не можете удалять свои сообщения
    Вы не можете голосовать в опросах
    Вы не можете прикреплять файлы к сообщениям
    Вы можете скачивать файлы