новый адрес
Мега распродажа FORZA HORIZON 4 ULTIMATE+ВСЕ DLC+ОНЛАЙН всего за 499р. 349 руб. (супер цена). Внимание количество ограничено!!!

iTunes

1+1

iTunes

мы

iTunes

1

iTunes

Чернобыль

iTunes

Ральф против интернета

Лицензия

ПШазам

Лицензия

Игра престолов

Лицензия

30
pack

ВАЖНО

!!Акция!!

Alien_RageХит недели

RePack

Resident Evil 21

ИГРА 18+

pack

RePack

Metro:Exodus

!!Акция!!

Alien_Rage

RePack

fifa19

RePack

Assassins Creed: Odyssey

RePack

NEED FOR SPEED™ PAYBACK

3 сезон

9 сезон

Бесстыжие 9 сезон

Все сериалы

все сериалы на PB.wtf

RePack

FAR CRY 5
Ребята, катастрофически не хватает 1900р. для оплаты серверов за Октябрь (всвязи с блокировками трафик упал в 3 раза), 1-2р., выручайте.
  

Трое в лодке, не считая собаки (Наум Бирман ) [1979, мюзикл, комедия, BDRip-AVC] pb.wtf

Трое в лодке, не считая собаки через торрент pb.wtf

Размер: 2.17 GB | Добавлен: 3 года 1 мес. назад | Торрент скачан:97 раз
Скачать  

02-10-2016 20:48 Трое в лодке, не считая собаки Скачать торрент  

Трое в лодке, не считая собаки

Год выпуска: 1979
Страна: СССР
Жанр: мюзикл, комедия

Продолжительность: 01:06:23 + 01:06:02
Перевод: Не требуется [Русский]
Режиссер: Наум Бирман
В ролях: Андрей Миронов (Джером К. Джером, Джи, миссис Байкли, трактирщик, посетитель трактира, дядюшка Поджер), Александр Ширвиндт (Харрис), Михаил Державин (Джордж), Лариса Голубкина (Энн), Алина Покровская (Эмилия), Ирина Мазуркевич (Патриция), Георгий Штиль (усатый капитан), Зиновий Гердт (могильщик), Татьяна Пельтцер (миссис Поппитс), Ольга Волкова, Лев Лемке (старичок со слуховым рожком), Виктор Ильичев
Описание:
По одноименной повести Джерома К. Джерома. Однажды трое приятелей-холостяков, лондонских жителей, решили сделаться ближе к природе и отправиться в лодочное путешествие по Темзе, прихватив с собой собачку Монморенси...

Качество: BDRip-AVC
Формат: MKV
Видео: AVC, 768x560 (1.371), 2145 kbps, 23,976 fps, 0,208 bpp
Аудио: русский / AC3 / 1 / 48 kHz / 192 kbps /

General
Unique ID
Complete name \Troe_V_Lodke_Ne_Schitaya_Sobaki\01.Troe.v.lodke.ne.schitaya.sobaki.1979.BDRip.AVC.mkv
Format : Matroska
Format version : Version 2
File size : 1.08 GiB
Duration : 1 h 6 min
Overall bit rate : 2 339 kb/s
Movie name : Трое в лодке, не считая собаки (1-серия)
Encoded date : UTC 2016-09-23 11:32:11
Writing application : mkvmerge v3.4.0 ('Rapunzel') built on May 15 2010 09:38:20
Writing library : libebml v0.8.0 + libmatroska v0.9.0

Video
ID : 1
Format : AVC
Format/Info : Advanced Video Codec
Format profile : High@L4.1
Format settings, CABAC : Yes
Format settings, ReFrames : 10 frames
Codec ID : V_MPEG4/ISO/AVC
Duration : 1 h 6 min
Bit rate : 2 145 kb/s
Width : 768 pixels
Height : 560 pixels
Display aspect ratio : 1.371
Frame rate mode : Constant
Frame rate : 23.976 (24000/1001) FPS
Color space : YUV
Chroma subsampling : 4:2:0
Bit depth : 8 bits
Scan type : Progressive
Bits/(Pixel*Frame) : 0.208
Stream size : 998 MiB (90%)
Title : MPEG-4 (AVC)
Writing library : x264 core 148 r2705 3f5ed56
Encoding settings : cabac=1 / ref=10 / deblock=1:-2:-1 / analyse=0x3:0x133 / me=umh / subme=10 / psy=1 / psy_rd=1.00:0.15 / mixed_ref=1 / me_range=32 / chroma_me=1 / trellis=2 / 8x8dct=1 / cqm=0 / deadzone=21,11 / fast_pskip=0 / chroma_qp_offset=-3 / threads=3 / lookahead_threads=1 / sliced_threads=0 / nr=0 / decimate=1 / interlaced=0 / bluray_compat=0 / constrained_intra=0 / bframes=8 / b_pyramid=2 / b_adapt=2 / b_bias=0 / direct=3 / weightb=1 / open_gop=0 / weightp=2 / keyint=240 / keyint_min=23 / scenecut=40 / intra_refresh=0 / rc_lookahead=80 / rc=2pass / mbtree=1 / bitrate=2145 / ratetol=1.0 / qcomp=0.60 / qpmin=0 / qpmax=69 / qpstep=4 / cplxblur=20.0 / qblur=0.5 / ip_ratio=1.35 / aq=1:1.00
Language : Russian
Default : Yes
Forced : No

Audio
ID : 2
Format : AC-3
Format/Info : Audio Coding 3
Mode extension : CM (complete main)
Format settings, Endianness : Big
Codec ID : A_AC3
Duration : 1 h 6 min
Bit rate mode : Constant
Bit rate : 192 kb/s
Channel(s) : 1 channel
Channel positions : Front: C
Sampling rate : 48.0 kHz
Frame rate : 31.250 FPS (1536 spf)
Compression mode : Lossy
Stream size : 91.2 MiB (8%)
Title : AC3 1.0 @ 192 kbps
Language : Russian
Default : Yes
Forced : No
Скриншоты:
pb.wtf



Скачать Трое в лодке, не считая собаки через торрент http://i4.imageban.ru/out/2016/10/02/8dd1173fbc827b65e7286820fedbbb3c.jpg Скачать фильм Трое в лодке, не считая собаки через торрент бесплантно в хорошем качестве Описание: По одноименной повести Джерома К. Джерома. Однажды трое приятелей-холостяков, лондонских жителей, решили сделаться ближе к ... 10 10 3
Торрент: Зарегистрирован [2016-10-02 20:48] · скачан: 97 раз
Статус: √ проверено
Размер: 2.17 GB
Как cкачать? Как скачать Трое в лодке, не считая собаки через торрент | qTorrent


>> Регистрируемся здесь <<






Отзывы и комментарии о схеме читаем и пишем здесь: ---> Отзывы и комментарии о схеме

Новые благодарочки в телеграм довольных пользователей:
скриншот   скриншот   скриншот   скриншот   скриншот

30-03-2018 00:12 Трое в лодке, не считая собаки Скачать торрент  

Отличный фильм. Добавлю в коллекцию. Спасибо релизеру и раздающим.pb.wtf



    Дорогой пользователь! Огромная просьба, поблагодарите релизера, оцените раздачу и оставьте свои комментарий, если Вы скачали Трое в лодке, не считая собаки через торрент бесплатно! Внесите свою лепту в развитие PiratBit!
    Комментировать посты могут только пользователи прошедшие не сложную регистрацию
    Показать сообщения:    

    Трое в лодке, не считая собаки через торрент
    Скачать бесплатно Трое в лодке, не считая собаки
    Трое в лодке, не считая собаки скачать торрент
    Трое в лодке, не считая собаки смотреть онлайн
    Cкачать фильм Трое в лодке, не считая собаки бесплатно
    Трое в лодке, не считая собаки скачать торрент в хорошем качестве
    Трое в лодке, не считая собаки смотреть онлайн бесплатно в хорошем качестве


    Вы не можете начинать темы
    Вы не можете отвечать на сообщения
    Вы не можете редактировать свои сообщения
    Вы не можете удалять свои сообщения
    Вы не можете голосовать в опросах
    Вы не можете прикреплять файлы к сообщениям
    Вы можете скачивать файлы