новый адрес
Мега распродажа FORZA HORIZON 4 ULTIMATE+ВСЕ DLC+ОНЛАЙН всего за 499р. 349 руб. (супер цена). Внимание количество ограничено!!!

iTunes

1+1

iTunes

мы

iTunes

1

iTunes

Чернобыль

iTunes

Ральф против интернета

Лицензия

ПШазам

Лицензия

Игра престолов

Лицензия

30
pack

ВАЖНО

!!Акция!!

Alien_RageХит недели

RePack

Resident Evil 21

ИГРА 18+

pack

RePack

Metro:Exodus

!!Акция!!

Alien_Rage

RePack

fifa19

RePack

Assassins Creed: Odyssey

RePack

NEED FOR SPEED™ PAYBACK

3 сезон

9 сезон

Бесстыжие 9 сезон

Все сериалы

все сериалы на PB.wtf

RePack

FAR CRY 5
Ребята, катастрофически не хватает 1900р. для оплаты серверов за Октябрь (всвязи с блокировками трафик упал в 3 раза), 1-2р., выручайте.
  

Два билета на дневной сеанс (Герберт Раппапорт ) [1967, криминал, детектив, DVDRip-AVC] pb.wtf

Два билета на дневной сеанс через торрент pb.wtf

Размер: 1.45 GB | Добавлен: 3 года 1 мес. назад | Торрент скачан:25 раз
Скачать  

02-10-2016 21:15 Два билета на дневной сеанс Скачать торрент  

Два билета на дневной сеанс

Год выпуска: 1967
Страна: СССР
Жанр: криминал, детектив

Продолжительность: 01:32:54
Перевод: Не требуется [Русский]
Субтитры: русский
Режиссер: Герберт Раппапорт
В ролях: Александр Збруев (Алешин), Земфира Цахилова (Тоня), Игорь Горбачев (Николаев), Петр Горин (Шондыш), Алексей Кожевников (Андреев), Никита Подгорный (Лебедянский), Валентина Сперантова (мать Лебедянского), Бруно Фрейндлих (Блинов), Лариса Барабанова (Кнопка), Владимир Кенигсон (Рубцов), Галина Никулина (Юлия), Людмила Чурсина (Инка-эстонка)
Описание:
Ответственного комсомольца Алешина райком направляет работать в ОБХСС. Однако молодой человек абсолютно не чувствует в себе призвания к этому делу и подает рапорт об увольнении. Начальник готов удовлетворить его просьбу, но только после того, как Алешин выполнит одно очень важное задание.
Дело в следующем: у двух преступников, занимающихся валютными махинациями, обнаружены билеты на один сеанс в кинотеатр «Ударник». Казалось бы ничего криминального, однако эти два использованных билета оказываются на одно и то же место, но на разные дни.
Оперативникам это кажется странным, и начальство поручает Алешину все выяснить. Молодой человек начинает раскручивать это дело. Самый обыкновенный билет на киносеанс неожиданно оказывается паролем преступников. Алешин с помощью этой информации внедряется в банду…

Качество: DVDRip-AVC
Формат: MKV
Видео: AVC, 720@896x438 (2.046), 2042 kbps, 25 fps, 0,259 bpp
Аудио: русский / AC3 / 2.0 / 48 kHz / 192 kbps /
Навигация по главам: есть

General
Unique ID
Complete name Два билета на дневной сеанс.(1966).mkv
Format : Matroska
Format version : Version 2
File size : 1.45 GiB
Duration : 1 h 32 min
Overall bit rate : 2 236 kb/s
Encoded date : UTC 2016-03-09 10:49:55
Writing application : mkvmerge v5.8.0 ('No Sleep / Pillow') built on Sep 2 2012 15:37:04
Writing library : libebml v1.2.3 + libmatroska v1.3.0
Comment : DVDRip-AVC
Encoded by : george$t®
Originally released : March 9th 2016

Video
ID : 1
Format : AVC
Format/Info : Advanced Video Codec
Format profile : High@L4.1
Format settings, CABAC : Yes
Format settings, ReFrames : 16 frames
Codec ID : V_MPEG4/ISO/AVC
Duration : 1 h 32 min
Bit rate : 2 042 kb/s
Width : 720 pixels
Height : 438 pixels
Display aspect ratio : 2.046
Frame rate mode : Constant
Frame rate : 25.000 FPS
Color space : YUV
Chroma subsampling : 4:2:0
Bit depth : 8 bits
Scan type : Progressive
Bits/(Pixel*Frame) : 0.259
Stream size : 1.30 GiB (89%)
Title : Два билета на дневной сеанс.1966
Writing library : x264 core 148 r2638kMod 7599210
Encoding settings : cabac=1 / ref=16 / deblock=1:-2:-2 / analyse=0x3:0x133 / me=umh / subme=11 / psy=1 / fade_compensate=0.00 / psy_rd=1.08:0.20 / mixed_ref=1 / me_range=48 / chroma_me=1 / trellis=2 / 8x8dct=1 / cqm=0 / deadzone=21,11 / fast_pskip=0 / chroma_qp_offset=-3 / threads=12 / lookahead_threads=3 / sliced_threads=0 / nr=0 / decimate=0 / interlaced=0 / bluray_compat=0 / constrained_intra=0 / fgo=0 / bframes=10 / b_pyramid=2 / b_adapt=2 / b_bias=0 / direct=3 / weightb=1 / open_gop=0 / weightp=2 / keyint=250 / keyint_min=25 / scenecut=40 / intra_refresh=0 / rc_lookahead=40 / rc=2pass / mbtree=0 / bitrate=2042 / ratetol=1.0 / qcomp=0.60 / qpmin=0 / qpmax=69 / qpstep=4 / cplxblur=20.0 / qblur=0.5 / vbv_maxrate=50000 / vbv_bufsize=62500 / nal_hrd=none / filler=0 / ip_ratio=1.20 / pb_ratio=1.25 / aq=2:0.50
Language : Russian
Default : Yes
Forced : No
Color range : Limited
Color primaries : BT.601 PAL
Transfer characteristics : BT.470 System B, BT.470 System G
Matrix coefficients : BT.601

Audio
ID : 2
Format : AC-3
Format/Info : Audio Coding 3
Mode extension : CM (complete main)
Format settings, Endianness : Big
Codec ID : A_AC3
Duration : 1 h 32 min
Bit rate mode : Constant
Bit rate : 192 kb/s
Channel(s) : 2 channels
Channel positions : Front: L R
Sampling rate : 48.0 kHz
Frame rate : 31.250 FPS (1536 spf)
Compression mode : Lossy
Stream size : 128 MiB (9%)
Title : Оригинал («Ленфильм»): AC-3; 16 bits 48 Khz; 2.0ch 192 Kbps; CBR
Language : Russian
Default : Yes
Forced : No

Text
ID : 3
Format : UTF-8
Codec ID : S_TEXT/UTF8
Codec ID/Info : UTF-8 Plain Text
Title : Субтитры русские
Language : Russian
Default : No
Forced : No

Menu
00:00:00.000 : ru:Глава 1
00:07:52.640 : ru:Глава 2
00:14:15.120 : ru:Глава 3
00:21:51.840 : ru:Глава 4
00:30:39.800 : ru:Глава 5
00:37:02.800 : ru:Глава 6
00:45:16.600 : ru:Глава 7
00:55:07.840 : ru:Глава 8
01:03:53.160 : ru:Глава 9
01:10:47.920 : ru:Глава 10
01:17:37.240 : ru:Глава 11
01:25:04.240 : ru:Глава 12
Скриншоты:
pb.wtf



Скачать Два билета на дневной сеанс через торрент http://i1.imageban.ru/out/2016/10/03/c6437a3d7b6989e26c4f14ba757503f1.jpg Скачать фильм Два билета на дневной сеанс через торрент бесплантно в хорошем качестве Описание: Ответственного комсомольца Алешина райком направляет работать в ОБХСС. Однако молодой человек абсолютно не чувствует в себе ... 10 10 2
Торрент: Зарегистрирован [2016-10-02 21:15] · скачан: 25 раз
Статус: √ проверено
Размер: 1.45 GB
Как cкачать? Как скачать Два билета на дневной сеанс через торрент | qTorrent


>> Регистрируемся здесь <<






Отзывы и комментарии о схеме читаем и пишем здесь: ---> Отзывы и комментарии о схеме

Новые благодарочки в телеграм довольных пользователей:
скриншот   скриншот   скриншот   скриншот   скриншот
    Дорогой пользователь! Огромная просьба, поблагодарите релизера, оцените раздачу и оставьте свои комментарий, если Вы скачали Два билета на дневной сеанс через торрент бесплатно! Внесите свою лепту в развитие PiratBit!
    Комментировать посты могут только пользователи прошедшие не сложную регистрацию
    Показать сообщения:    

    Два билета на дневной сеанс через торрент
    Скачать бесплатно Два билета на дневной сеанс
    Два билета на дневной сеанс скачать торрент
    Два билета на дневной сеанс смотреть онлайн
    Cкачать фильм Два билета на дневной сеанс бесплатно
    Два билета на дневной сеанс скачать торрент в хорошем качестве
    Два билета на дневной сеанс смотреть онлайн бесплатно в хорошем качестве


    Вы не можете начинать темы
    Вы не можете отвечать на сообщения
    Вы не можете редактировать свои сообщения
    Вы не можете удалять свои сообщения
    Вы не можете голосовать в опросах
    Вы не можете прикреплять файлы к сообщениям
    Вы можете скачивать файлы