новый адрес
Мега распродажа FORZA HORIZON 4 ULTIMATE+ВСЕ DLC+ОНЛАЙН всего за 499р. 349 руб. (супер цена). Внимание количество ограничено!!!

iTunes

1+1

iTunes

мы

iTunes

1

iTunes

Чернобыль

iTunes

Ральф против интернета

Лицензия

ПШазам

Лицензия

Игра престолов

Лицензия

30
pack

ВАЖНО

!!Акция!!

Alien_RageХит недели

RePack

Resident Evil 21

ИГРА 18+

pack

RePack

Metro:Exodus

!!Акция!!

Alien_Rage

RePack

fifa19

RePack

Assassins Creed: Odyssey

RePack

NEED FOR SPEED™ PAYBACK

3 сезон

9 сезон

Бесстыжие 9 сезон

Все сериалы

все сериалы на PB.wtf

RePack

FAR CRY 5
Ребята, катастрофически не хватает 1900р. для оплаты серверов за Октябрь (всвязи с блокировками трафик упал в 3 раза), 1-2р., выручайте.
  

Влюблен по собственному желанию (Сергей Микаэлян ) [1982, мелодрама, комедия, WEB-DLRip-AVC] pb.wtf

Влюблен по собственному желанию через торрент pb.wtf

Размер: 1.77 GB | Добавлен: 3 года 1 мес. назад | Торрент скачан:79 раз
Скачать  

02-10-2016 21:30 Влюблен по собственному желанию Скачать торрент  

Влюблен по собственному желанию

Год выпуска: 1982
Страна: СССР
Жанр: мелодрама, комедия

Продолжительность: 01:23:42
Перевод: Не требуется [Русский]
Субтитры: английский
Режиссер: Сергей Микаэлян
В ролях: Олег Янковский (Игорь), Евгения Глушенко (Вера), Всеволод Шиловский (Коля), Ирина Резникова (Наташа), Юрий Дубровин (бригадир Петрушин), Владимир Белоусов (кощунственный отдыхающий), Юрий Копыч (Михаил Петрович), Кира Крейлис-Петрова (мать Веры), Иван Уфимцев (незадачливый ухажер-художник), Светлана Шершнева (сотрудница библиотеки), Наталья Егорова (отдыхающая «дикарём» с семьей на природе), Сергей Лосев (плановик)
Описание:
Бывший спортсмен, а теперь опустившийся от беспросветных кутежей бездельник звонит случайной знакомой в надежде на то, что она поможет ему разрешить очередную проблему с «трешкой». Но знакомая оказалась весьма серьезной библиотекаршей и всегда готова помочь тем, кто в ней нуждается.
Зная о своей непривлекательности, она также знает и то, что если поставить цель, то можно всего добиться. С помощью аутотренинга, например, можно даже влюбиться друг в друга. Главное, чтобы этот «другой» хотя бы был…

Качество: WEB-DLRip-AVC
Формат: MKV
Видео: AVC, 972x544 (16:9), 2517 kbps, 25 fps, 0,190 bpp
Аудио: русский / AC3 / 5.1 / 48 kHz / 448 kbps /
Навигация по главам: есть

General
Unique ID Влюблен по собственному желанию.1982.mkv
Format : Matroska
Format version : Version 2
File size : 1.77 GiB
Duration : 1 h 23 min
Overall bit rate : 3 026 kb/s
Encoded date : UTC 2016-02-04 17:49:22
Writing application : mkvmerge v7.8.0 ('River Man') 32bit built on Mar 27 2015 16:18:02
Writing library : libebml v1.3.1 + libmatroska v1.4.2
Comment : WEB-DLRip-AVC
Encoded by : george$t®
Originally released : February 4th 2016

Video
ID : 1
Format : AVC
Format/Info : Advanced Video Codec
Format profile : High@L4.1
Format settings, CABAC : Yes
Format settings, ReFrames : 14 frames
Codec ID : V_MPEG4/ISO/AVC
Duration : 1 h 23 min
Bit rate : 2 518 kb/s
Width : 972 pixels
Height : 544 pixels
Display aspect ratio : 16:9
Frame rate mode : Constant
Frame rate : 25.000 FPS
Color space : YUV
Chroma subsampling : 4:2:0
Bit depth : 8 bits
Scan type : Progressive
Bits/(Pixel*Frame) : 0.190
Stream size : 1.47 GiB (83%)
Title : Влюблен по собственному желанию.1982
Writing library : x264 core 148 r2638kMod 7599210
Encoding settings : cabac=1 / ref=14 / deblock=1:-2:0 / analyse=0x3:0x113 / me=umh / subme=11 / psy=1 / fade_compensate=0.00 / psy_rd=1.05:0.03 / mixed_ref=1 / me_range=32 / chroma_me=1 / trellis=2 / 8x8dct=1 / cqm=0 / deadzone=21,11 / fast_pskip=1 / chroma_qp_offset=-3 / threads=12 / lookahead_threads=2 / sliced_threads=0 / nr=0 / decimate=1 / interlaced=0 / bluray_compat=0 / constrained_intra=0 / fgo=0 / bframes=8 / b_pyramid=2 / b_adapt=2 / b_bias=0 / direct=1 / weightb=1 / open_gop=0 / weightp=2 / keyint=250 / keyint_min=25 / scenecut=40 / intra_refresh=0 / rc_lookahead=40 / rc=crf / mbtree=0 / crf=18.8000 / qcomp=0.65 / qpmin=0 / qpmax=69 / qpstep=4 / vbv_maxrate=50000 / vbv_bufsize=62500 / crf_max=0.0 / nal_hrd=none / filler=0 / ip_ratio=1.40 / pb_ratio=1.30 / aq=3:0.70
Language : Russian
Default : Yes
Forced : No
Color range : Limited
Color primaries : BT.709
Transfer characteristics : BT.709
Matrix coefficients : BT.709

Audio
ID : 2
Format : AC-3
Format/Info : Audio Coding 3
Mode extension : CM (complete main)
Format settings, Endianness : Big
Codec ID : A_AC3
Duration : 1 h 23 min
Bit rate mode : Constant
Bit rate : 448 kb/s
Channel(s) : 6 channels
Channel positions : Front: L C R, Side: L R, LFE
Sampling rate : 48.0 kHz
Frame rate : 31.250 FPS (1536 spf)
Compression mode : Lossy
Stream size : 268 MiB (15%)
Title : AC-3; 16 bit 48 Khz; 5.1ch 448 Kbps; CBR
Language : Russian
Default : Yes
Forced : No

Text
ID : 3
Format : UTF-8
Codec ID : S_TEXT/UTF8
Codec ID/Info : UTF-8 Plain Text
Title : Субтитры английские
Language : English
Default : No
Forced : No

Menu
00:00:00.000 : ru:Титры. Случайное знакомство
00:08:30.000 : ru:Верунчик
00:15:31.160 : ru:Начало эксперимента
00:23:18.000 : ru:Теория и жизнь
00:30:51.040 : ru:Поездка за город
00:37:07.320 : ru:Поцелуй
00:40:53.560 : ru:Ссоры
00:51:58.360 : ru:Деревенский роман
00:57:16.640 : ru:Мучения
01:02:34.520 : ru:Заманчивое предложение
01:07:02.960 : ru:Решительные поступки
01:15:45.080 : ru:Что такое счастье?
Скриншоты:
pb.wtf



Скачать Влюблен по собственному желанию через торрент http://i2.imageban.ru/out/2016/10/03/6a87a0dd78bfe68e2ce8cebd8bdbf511.jpg Скачать фильм Влюблен по собственному желанию через торрент бесплантно в хорошем качестве Описание: Бывший спортсмен, а теперь опустившийся от беспросветных кутежей бездельник звонит случайной знакомой в надежде на то, что она ... 10 10 4
Торрент: Зарегистрирован [2016-10-02 21:30] · скачан: 79 раз
Статус: √ проверено
Размер: 1.77 GB
Как cкачать? Как скачать Влюблен по собственному желанию через торрент | qTorrent


>> Регистрируемся здесь <<






Отзывы и комментарии о схеме читаем и пишем здесь: ---> Отзывы и комментарии о схеме

Новые благодарочки в телеграм довольных пользователей:
скриншот   скриншот   скриншот   скриншот   скриншот
    Дорогой пользователь! Огромная просьба, поблагодарите релизера, оцените раздачу и оставьте свои комментарий, если Вы скачали Влюблен по собственному желанию через торрент бесплатно! Внесите свою лепту в развитие PiratBit!
    Комментировать посты могут только пользователи прошедшие не сложную регистрацию
    Показать сообщения:    

    Влюблен по собственному желанию через торрент
    Скачать бесплатно Влюблен по собственному желанию
    Влюблен по собственному желанию скачать торрент
    Влюблен по собственному желанию смотреть онлайн
    Cкачать фильм Влюблен по собственному желанию бесплатно
    Влюблен по собственному желанию скачать торрент в хорошем качестве
    Влюблен по собственному желанию смотреть онлайн бесплатно в хорошем качестве


    Вы не можете начинать темы
    Вы не можете отвечать на сообщения
    Вы не можете редактировать свои сообщения
    Вы не можете удалять свои сообщения
    Вы не можете голосовать в опросах
    Вы не можете прикреплять файлы к сообщениям
    Вы можете скачивать файлы