Всегда рабочее зеркало просто перед .vidak.icu напиши любое слово или цифру, Пример http://67c.vidak.icu

>

7.4

iTunes

7.4

2 сезон

6.6

iTunes

1

7.4

2 сезон

7.2

iTunes

6.0

MVO

13

6.1

iTunes

8.3

Пиратка

30

ULTIMATE

pack

9.9

Лицензия

ВАЖНО

ИГРА 18+

pack

7.3

RePack

MK11

7.7

RePack

jed

7.8

RePack

fifa19

8.5

RePack

RDR2

RePack

NEED FOR SPEED™ PAYBACK

1 сезон

9 сезон

Бесстыжие 9 сезон

Все сериалы

все сериалы на PB.wtf

RePack

FAR CRY 5

Anonymous, добрый вечер, мы катастрофически не успеваем собрать деньги на оплату серверов, помогите нам пожалуйста 5,10,15р., для нас важна любая помощь . В качестве благодарности мы отключим Вам всю рекламу на сайте (укажите свой ник в строку Ваше имя)!

×
  
Magnet ссылка

Гамлет (2 серии)(Григорий Козинцев ) [1964, драма, DVDRip-AVC] pb.wtf

Гамлет через торрент pb.wtf

Размер: 2.17 GB | Добавлен: 5 лет 3 мес. назад | Торрент скачан:29 раз
Смотреть онлайн Гамлет | Скачать    Ребята, помогите собрать деньги на оплату серверов!!!

03-10-2016 13:31 Гамлет Скачать торрент  

Гамлет (2 серии)

Год выпуска: 1964
Страна: СССР
Жанр: драма

Продолжительность: 01:11:39 + 01:11:03
Перевод: Не требуется [Русский]
Субтитры: русский, английский, французский
Режиссер: Григорий Козинцев
В ролях: Иннокентий Смоктуновский (Гамлет), Михаил Названов (король), Эльза Радзиня (королева), Юрий Толубеев (Полоний), Анастасия Вертинская (Офелия), Вадим Медведев (Гильденстерн), Владимир Эренберг (Горацио), Степан Олексенко (Лаэрт), Игорь Дмитриев (Розенкранц), Григорий Гай, Рейно Арен, А. Кревалид (Фортинбрас, принц норвежский)
Описание:
2-х серийный художественный фильм по одноименной трагедии Уильяма Шекспира «Гамлет».

Качество: DVDRip-AVC
Формат: MKV
Видео: AVC, 712@1012x438 (2.35:1), 1919 kbps, 25 fps, 0,246 bpp
Аудио: русский / AC3 / 1 / 48 kHz / 128 kbps /
Навигация по главам: есть

General
Unique ID
Complete name Гамлет.1964\Гамлет.1964.1 серия.mkv
Format : Matroska
Format version : Version 2
File size : 1.05 GiB
Duration : 1 h 11 min
Overall bit rate : 2 089 kb/s
Encoded date : UTC 2016-06-07 10:47:59
Writing application : mkvmerge v5.8.0 ('No Sleep / Pillow') built on Sep 2 2012 15:37:04
Writing library : libebml v1.2.3 + libmatroska v1.3.0
Comment : DVDRip-AVC
Encoded by : george$t®
Originally released : June 6th 2016

Video
ID : 1
Format : AVC
Format/Info : Advanced Video Codec
Format profile : High@L4.1
Format settings, CABAC : Yes
Format settings, ReFrames : 16 frames
Codec ID : V_MPEG4/ISO/AVC
Duration : 1 h 11 min
Bit rate : 1 919 kb/s
Width : 712 pixels
Height : 438 pixels
Display aspect ratio : 2.35:1
Original display aspect ratio : 2.35:1
Frame rate mode : Constant
Frame rate : 25.000 FPS
Color space : YUV
Chroma subsampling : 4:2:0
Bit depth : 8 bits
Scan type : Progressive
Bits/(Pixel*Frame) : 0.246
Stream size : 984 MiB (92%)
Title : Гамлет.1964.1 серия
Writing library : x264 core 148 r2692kMod 64f4e24
Encoding settings : cabac=1 / ref=16 / deblock=1:-2:-1 / analyse=0x3:0x133 / me=umh / subme=11 / psy=1 / fade_compensate=0.00 / psy_rd=1.10:0.15 / mixed_ref=1 / me_range=48 / chroma_me=1 / trellis=2 / 8x8dct=1 / cqm=0 / deadzone=21,11 / fast_pskip=1 / chroma_qp_offset=-3 / threads=12 / lookahead_threads=3 / sliced_threads=0 / nr=0 / decimate=0 / interlaced=0 / bluray_compat=0 / constrained_intra=0 / fgo=0 / bframes=10 / b_pyramid=2 / b_adapt=2 / b_bias=0 / direct=3 / weightb=1 / open_gop=0 / weightp=2 / keyint=250 / keyint_min=25 / scenecut=40 / intra_refresh=0 / rc_lookahead=60 / rc=crf / mbtree=0 / crf=18.0000 / qcomp=0.67 / qpmin=0 / qpmax=69 / qpstep=4 / vbv_maxrate=50000 / vbv_bufsize=62500 / crf_max=0.0 / nal_hrd=none / filler=0 / ip_ratio=1.40 / pb_ratio=1.25 / aq=2:0.40
Language : Russian
Default : Yes
Forced : No
Color range : Limited
Color primaries : BT.601 PAL
Transfer characteristics : BT.470 System B, BT.470 System G
Matrix coefficients : BT.601

Audio
ID : 2
Format : AC-3
Format/Info : Audio Coding 3
Mode extension : CM (complete main)
Format settings, Endianness : Big
Codec ID : A_AC3
Duration : 1 h 11 min
Bit rate mode : Constant
Bit rate : 128 kb/s
Channel(s) : 1 channel
Channel positions : Front: C
Sampling rate : 48.0 kHz
Frame rate : 31.250 FPS (1536 spf)
Compression mode : Lossy
Stream size : 65.6 MiB (6%)
Title : Оригинал: AC-3; 16 bit 48 Khz; Mono 128 Kbps; CBR
Language : Russian
Default : Yes
Forced : No

Text #1
ID : 3
Format : UTF-8
Codec ID : S_TEXT/UTF8
Codec ID/Info : UTF-8 Plain Text
Title : Субтитры русские
Language : Russian
Default : No
Forced : No

Text #2
ID : 4
Format : UTF-8
Codec ID : S_TEXT/UTF8
Codec ID/Info : UTF-8 Plain Text
Title : Субтитры английские
Language : English
Default : No
Forced : No

Text #3
ID : 5
Format : UTF-8
Codec ID : S_TEXT/UTF8
Codec ID/Info : UTF-8 Plain Text
Title : Субтитры французские
Language : French
Default : No
Forced : No

Menu
00:00:00.000 : ru:Печаль
00:05:24.160 : ru:Радость королевы
00:11:28.720 : ru:Тайна
00:15:39.600 : ru:Офелия
00:18:54.200 : ru:Тень отца
00:28:17.680 : ru:Сумасшествие Гамлета
00:35:34.320 : ru:Друзья
00:39:45.040 : ru:Театр
00:46:19.680 : ru:Монолог
00:49:24.400 : ru:Любовь
00:54:07.600 : ru:Спектакль
01:04:50.960 : ru:Ложь и убийство
Скриншоты:
pb.wtf



Скачать Гамлет через торрент http://i2.imageban.ru/out/2016/10/03/b46d21c9a31b7233780cd62f4fc655bb.jpg Скачать, смотреть онлайн Гамлет бесплантно в хорошем качестве Описание: 2-х серийный художественный фильм по одноименной трагедии Уильяма Шекспира ... 10 10 2
Торрент: Зарегистрирован [2016-10-03 13:31] · скачан: 29 раз
Статус: √ проверено
Размер: 2.17 GB
Как cкачать? Как скачать Гамлет через торрент | UTorrent

% Раздел Тема Автор DL S | L
TNT serials [ 733 MB ] 8 способов любить / Сезон: 1 / Серии: 1-4 из 8 [2021 WEBRip ] bober100 Скачать
1 | 0
TNT serials [ 2.16 GB ] 8 способов любить / Сезон: 1 / Серии: 1-7 из 8 [2021 WEBRip 720p ] bober100 Скачать
1 | 0
TNT serials [ 3.19 GB ] 8 способов любить / Сезон: 1 / Серии: 1-7 из 8 [2021 WEBRip 1080p ] bober100 Скачать
1 | 0
T Фильмы (мультфильмы) cо спонсором показа (Новинки AVI/MKV) [ 6.57 GB ] Гамлет / Hamlet [2018 HDTVRip 720p] MVO ["Синема УС"] bober100 Скачать
1 | 0
T Фильмы (мультфильмы) cо спонсором показа (Новинки AVI/MKV) [ 2.74 GB ] Гамлет / Hamlet [2018 HDTVRip] MVO ["Синема УС"] bober100 Скачать
1 | 0
T Фильмы (мультфильмы) cо спонсором показа (Новинки AVI/MKV) [ 2.05 GB ] Гамлет / Hamlet [2018 HDTVRip] MVO ["Синема УС"] bober100 Скачать
1 | 0
Кино СССР [ 2.05 GB ] Гамлет [1964 DVDRip Русский] Sergo26 Скачать
1 | 0

28-11-2019 20:33  

Отключить всю рекламу на сайте

    Дорогой пользователь! Огромная просьба, поблагодарите релизера, оцените раздачу и оставьте свои комментарий, если Вы скачали Гамлет через торрент бесплатно!
    Комментировать посты могут только пользователи прошедшие не сложную регистрацию
    Показать сообщения:    

    Гамлет через торрент
    Скачать бесплатно Гамлет
    Гамлет скачать торрент
    Гамлет смотреть онлайн
    Cкачать фильм Гамлет бесплатно
    Гамлет скачать торрент в хорошем качестве
    Гамлет смотреть онлайн бесплатно в хорошем качестве


    Вы не можете начинать темы
    Вы не можете отвечать на сообщения
    Вы не можете редактировать свои сообщения
    Вы не можете удалять свои сообщения
    Вы не можете голосовать в опросах
    Вы не можете прикреплять файлы к сообщениям
    Вы можете скачивать файлы