новый адрес
Мега распродажа FORZA HORIZON 4 ULTIMATE+ВСЕ DLC+ОНЛАЙН всего за 499р. 349 руб. (супер цена). Внимание количество ограничено!!!

iTunes

1+1

iTunes

мы

iTunes

1

iTunes

Чернобыль

iTunes

Ральф против интернета

Лицензия

ПШазам

Лицензия

Оно 2

Лицензия

30
pack

ВАЖНО

!!Акция!!

Alien_RageХит недели

RePack

Resident Evil 21

ИГРА 18+

pack

RePack

Metro:Exodus

!!Акция!!

Alien_Rage

RePack

fifa19

RePack

Assassins Creed: Odyssey

RePack

NEED FOR SPEED™ PAYBACK

3 сезон

9 сезон

Бесстыжие 9 сезон

Все сериалы

все сериалы на PB.wtf

RePack

FAR CRY 5
Ребята, катастрофически не хватает 1900р. для оплаты серверов за Октябрь (всвязи с блокировками трафик упал в 3 раза), 1-2р., выручайте.
  

Сон в летнюю ночь / A Midsummer Night's Dream (Дэвид Керр) [2016 г., комедия, HDTVRip] VO [Cmert] pb.wtf

Сон в летнюю ночь через торрент pb.wtf

Размер: 1.44 GB | Добавлен: 3 года 1 мес. назад | Торрент скачан:69 раз
Скачать  

03-10-2016 17:06 Сон в летнюю ночь Скачать торрент  

Сон в летнюю ночь / A Midsummer Night's Dream
Год выпуска: 2016
Страна: Великобритания
Жанр: комедия
Продолжительность: 01:29:45
Перевод: Любительский (одноголосый)[Cmert]
Субтитры: отсутствуют

Режиссер: Дэвид Керр

rating

В ролях:

Мэтт Лукас, Джон Ханна, Максин Пик, Кейт Кеннеди, Приска Бакаре, Мэтью Теннисон, Елейн Пейдж, Нонсо Анози, Элинор Матсуура, Ричард Уилсон, Бернард Криббинс, Варада Сету, Эллиот Леви

Описание:

В одном далеком государстве жестокий герцог Тезей установил неофашистский режим и карательными мерами принудил всех к повиновению. Деву Гермию за отказ вступить в брак с воином из герцогской гвардии он приговаривает к смерти. Но Гермия бежит в волшебный лес, населенный духами и феями. Туда же направляется труппа местного любительского театра. В результате начинается феерия, наполненная превращениями, романтическими приключениями и забавными ошибками...

Очередная экранизация (в меру вольная) одноименной пьесы Шекспира

Качество: HDTVRip
Формат: AVI
Видео кодек: XviD
Аудио кодек: AC3

Видео: 720x400 ( 16:9 ), 25 fps, XviD MPEG-4 ~2104 kbps avg, 0.29 bit/pixel
Аудио#1: 44.1 kHz, AC3 Dolby Digital, 2/0 (L,R) ch, ~192 kbps
скриншот  скриншот  скриншот  скриншот  

скриншот  скриншот  скриншот  скриншот  
Общее
Полное имя : D:\Son_v_letnyuyu_noch.2016.HDTVRip.avi\Son_v_letnyuyu_noch.2016.HDTVRip.avi
Формат : AVI
Формат/Информация : Audio Video Interleave
Профиль формата : OpenDML
Размер файла : 1,44 Гбайт
Продолжительность : 1 ч. 29 м.
Общий поток : 2304 Кбит/сек
Название фильма : Rip by basma4i
Программа кодирования : Lavf57.41.100

Видео
Идентификатор : 0
Формат : MPEG-4 Visual
Профиль формата : Simple@L5
Параметр BVOP формата : 2
Параметр QPel формата : Нет
Параметр GMC формата : Без точки перехода
Параметр матрицы формата : Default (H.263)
Режим смешивания : Сжатый битовый поток
Идентификатор кодека : XVID
Идентификатор кодека/Подсказка : XviD
Продолжительность : 1 ч. 29 м.
Битрейт : 2100 Кбит/сек
Ширина : 720 пикселей
Высота : 400 пикселей
Соотношение сторон : 16:9
Частота кадров : 25,000 кадров/сек
Цветовое пространство : YUV
Субдискретизация насыщенности : 4:2:0
Битовая глубина : 8 бит
Тип развёртки : Прогрессивная
Метод сжатия : С потерями
Бит/(Пиксели*Кадры) : 0.292
Размер потока : 1,32 Гбайт (91%)
Библиотека кодирования : XviD 67

Аудио
Идентификатор : 1
Формат : AC-3
Формат/Информация : Audio Coding 3
Расширение режима : CM (complete main)
Параметр Endianness формата : Big
Идентификатор кодека : 2000
Продолжительность : 1 ч. 29 м.
Вид битрейта : Постоянный
Битрейт : 192 Кбит/сек
Каналы : 2 канала
Расположение каналов : Front: L R
Частота : 44,1 КГц
Частота кадров : 28,711 кадров/сек (1536 spf)
Битовая глубина : 16 бит
Метод сжатия : С потерями
Размер потока : 123 Мбайт (8%)
Выравнивание : Соединение по промежуткам
Продолжительность промежутка : 35 мс. (0,87 видеокадр)
pb.wtf



Скачать Сон в летнюю ночь через торрент http://pic1.kartinco.top/images/10/gxte4.jpg Скачать фильм Сон в летнюю ночь через торрент бесплантно в хорошем качестве Описание: В одном далеком государстве жестокий герцог Тезей установил неофашистский режим и карательными мерами принудил всех к ... 10 10 7
Торрент: Зарегистрирован [2016-10-03 17:06] · скачан: 69 раз
Статус: T временная
Размер: 1.44 GB
Как cкачать? Как скачать Сон в летнюю ночь через торрент | qTorrent


>> Регистрируемся здесь <<






Отзывы и комментарии о схеме читаем и пишем здесь: ---> Отзывы и комментарии о схеме

Новые благодарочки в телеграм довольных пользователей:
скриншот   скриншот   скриншот   скриншот   скриншот

03-10-2016 19:28 Сон в летнюю ночь Скачать торрент  

Где хоть ты это надыбал?pb.wtf



03-10-2016 20:23 Сон в летнюю ночь Скачать торрент  

zra, тебе место показать? pb.wtf



    Дорогой пользователь! Огромная просьба, поблагодарите релизера, оцените раздачу и оставьте свои комментарий, если Вы скачали Сон в летнюю ночь через торрент бесплатно! Внесите свою лепту в развитие PiratBit!
    Комментировать посты могут только пользователи прошедшие не сложную регистрацию
    Показать сообщения:    

    Сон в летнюю ночь через торрент
    Скачать бесплатно Сон в летнюю ночь
    Сон в летнюю ночь скачать торрент
    Сон в летнюю ночь смотреть онлайн
    Cкачать фильм Сон в летнюю ночь бесплатно
    Сон в летнюю ночь скачать торрент в хорошем качестве
    Сон в летнюю ночь смотреть онлайн бесплатно в хорошем качестве


    Вы не можете начинать темы
    Вы не можете отвечать на сообщения
    Вы не можете редактировать свои сообщения
    Вы не можете удалять свои сообщения
    Вы не можете голосовать в опросах
    Вы не можете прикреплять файлы к сообщениям
    Вы можете скачивать файлы