Ссылка на приватное зеркало нашего сайта всего за 1$. Внимание количество ограничено!!!

2 сезон

iTunes

1 сезон

1

2 сезон

2 сезон

iTunes

1 сезон

RePack

30

Ultimate

ВАЖНО

ИГРА 18+

pack

RePack

MK11
pack

Забери бонус

RePack

jed

!!Акция!!

Alien_Rage

RePack

fifa19

RePack

Assassins Creed: Odyssey

RePack

NEED FOR SPEED™ PAYBACK

4 сезон

9 сезон

Бесстыжие 9 сезон

Все сериалы

все сериалы на PB.wtf

RePack

FAR CRY 5
  

Удалённая местность / Edge of Winter (Роберт Коннолли) [2016, триллер, драма, WEB-DL 1080p] Профессиональный многоголосый [Лицензия / iTunes] pb.wtf

Удалённая местность через торрент pb.wtf

Размер: 3.22 GB | Добавлен: 4 года 1 мес. назад | Торрент скачан:137 раз
Скачать  

03-10-2016 17:32 Удалённая местность Скачать торрент  

Удалённая местность / Edge of Winter

Год выпуска: 2016
Страна: Канада, США
Жанр: триллер, драма
Продолжительность: 01:28:44
Перевод: Профессиональный многоголосый [Лицензия / iTunes]
Субтитры: английские
Режиссер: Роберт Коннолли
В ролях:

Шон Бенсон (Ted), Шайло Фернандес (Richard), Патрик Гэрроу (Gas Station Clerk), Том Холланд (Bradley Baker), Юэль Киннаман (Elliot Baker), Рашель Лефевр (Karen), Россиф Сазерленд (Luc), Перси Хайнс Уайт (Caleb Baker)
Описание:
Напряженная драма об одиноком мужчине, которому выпадает возможность сблизиться с двумя сыновьями, когда бывшая жена, уезжая в отпуск, оставляет их под его присмотром. Но вместо семейной идиллии братьев ждет кошмарная ночь в заброшенной хижине, сотрясаемой ударами снежной бури. Подростки многое откроют о своем малознакомом отце и о том, что они значат для него на самом деле.
Рейтинг:

MPAA: R - Лицам до 17 лет обязательно присутствие взрослого
Качество: WEB-DL 1080p
Формат: MKV
Видео: AVC, 1916x806 (2.40:1), 4324 kbps, 23,976 fps, 0,117 bpp
Аудио №1: русский / AC3 / 5.1 / 48 kHz / 384 kbps / |MVO, iTunes|
Аудио №2: английский / AC3 / 5.1 / 48 kHz / 384 kbps /
Навигация по главам: есть

General
Unique ID : 234306602143418616999406544485084750349 (0xB045CF6442038F0BB12F5EB5051AE20D)
Complete name : E:\Udalenna.Mestnost.2016.P.WEB-DL.1080p.mkv
Format : Matroska
Format version : Version 2
File size : 3.22 GiB
Duration : 1 h 28 min
Overall bit rate : 5 196 kb/s
Encoded date : UTC 2016-10-03 09:26:02
Writing application : mkvmerge v8.3.0 ('Over the Horizon') 64bit
Writing library : libebml v1.3.1 + libmatroska v1.4.2

Video
ID : 1
Format : AVC
Format/Info : Advanced Video Codec
Format profile : High@L4
Format settings, CABAC : Yes
Format settings, ReFrames : 5 frames
Codec ID : V_MPEG4/ISO/AVC
Duration : 1 h 28 min
Bit rate : 4 325 kb/s
Width : 1 916 pixels
Height : 806 pixels
Display aspect ratio : 2.40:1
Frame rate mode : Constant
Frame rate : 23.976 FPS
Color space : YUV
Chroma subsampling : 4:2:0
Bit depth : 8 bits
Scan type : Progressive
Bits/(Pixel*Frame) : 0.117
Stream size : 2.68 GiB (83%)
Title : Edge.of.Winter.2016.1080p.WEB-DL.DD5.1.H264-FGT
Language : English
Default : Yes
Forced : No
Color range : Limited
Color primaries : BT.709
Transfer characteristics : BT.709
Matrix coefficients : BT.709

Audio #1
ID : 2
Format : AC-3
Format/Info : Audio Coding 3
Mode extension : CM (complete main)
Format settings, Endianness : Big
Codec ID : A_AC3
Duration : 1 h 28 min
Bit rate mode : Constant
Bit rate : 384 kb/s
Channel(s) : 6 channels
Channel positions : Front: L C R, Side: L R, LFE
Sampling rate : 48.0 kHz
Frame rate : 31.250 FPS (1536 spf)
Compression mode : Lossy
Stream size : 244 MiB (7%)
Language : Russian
Default : Yes
Forced : Yes

Audio #2
ID : 3
Format : AC-3
Format/Info : Audio Coding 3
Mode extension : CM (complete main)
Format settings, Endianness : Big
Codec ID : A_AC3
Duration : 1 h 28 min
Bit rate mode : Constant
Bit rate : 384 kb/s
Channel(s) : 6 channels
Channel positions : Front: L C R, Side: L R, LFE
Sampling rate : 48.0 kHz
Frame rate : 31.250 FPS (1536 spf)
Compression mode : Lossy
Stream size : 244 MiB (7%)
Language : English
Default : No
Forced : No

Text
ID : 4
Format : UTF-8
Codec ID : S_TEXT/UTF8
Codec ID/Info : UTF-8 Plain Text
Language : English
Default : No
Forced : No

Menu
00:00:00.000 : en:1
00:03:58.905 : en:2
00:07:40.751 : en:3
00:14:11.600 : en:4
00:21:30.288 : en:5
00:24:51.364 : en:6
00:32:48.799 : en:7
00:36:42.073 : en:8
00:40:55.076 : en:9
00:44:47.475 : en:10
00:50:53.883 : en:11
00:57:24.815 : en:12
01:03:27.928 : en:13
01:10:00.570 : en:14
01:15:48.251 : en:15
01:21:28.674 : en:16
pb.wtf



Скачать Удалённая местность через торрент http://i5.imageban.ru/out/2016/10/03/f5fe41500c2f55c9d6a189de5ceb26a3.jpg Скачать фильм Удалённая местность через торрент бесплантно в хорошем качестве Описание: Напряженная драма об одиноком мужчине, которому выпадает возможность сблизиться с двумя сыновьями, когда бывшая жена, уезжая в ... 9.6 10 9
Торрент: Зарегистрирован [2016-10-03 17:32] · скачан: 137 раз
Статус: √ проверено
Размер: 3.22 GB
Как cкачать? Как скачать Удалённая местность через торрент | qTorrent

28-11-2019 20:33  

Отключить всю рекламу на сайте

    Дорогой пользователь! Огромная просьба, поблагодарите релизера, оцените раздачу и оставьте свои комментарий, если Вы скачали Удалённая местность через торрент бесплатно! Внесите свою лепту в развитие PiratBit!
    Комментировать посты могут только пользователи прошедшие не сложную регистрацию
    Показать сообщения:    

    Удалённая местность через торрент
    Скачать бесплатно Удалённая местность
    Удалённая местность скачать торрент
    Удалённая местность смотреть онлайн
    Cкачать фильм Удалённая местность бесплатно
    Удалённая местность скачать торрент в хорошем качестве
    Удалённая местность смотреть онлайн бесплатно в хорошем качестве


    Вы не можете начинать темы
    Вы не можете отвечать на сообщения
    Вы не можете редактировать свои сообщения
    Вы не можете удалять свои сообщения
    Вы не можете голосовать в опросах
    Вы не можете прикреплять файлы к сообщениям
    Вы можете скачивать файлы