новый адрес пиратбит piratbit
Мега распродажа FORZA HORIZON 4 ULTIMATE+ВСЕ DLC+ОНЛАЙН всего за 499р. 349 руб. (супер цена). Внимание количество ограничено!!!

iTunes

1+1

iTunes

мы

iTunes

1

iTunes

Чернобыль

iTunes

Ральф против интернета

Лицензия

ПШазам

Лицензия

Игра престолов

Лицензия

30
pack

ВАЖНО

!!Акция!!

Alien_RageХит недели

RePack

Resident Evil 21

ИГРА 18+

pack

RePack

Metro:Exodus

!!Акция!!

Alien_Rage

RePack

fifa19

RePack

Assassins Creed: Odyssey

RePack

NEED FOR SPEED™ PAYBACK

3 сезон

9 сезон

Бесстыжие 9 сезон

Все сериалы

все сериалы на PB.wtf

RePack

FAR CRY 5
Ребята, катастрофически не хватает 1900р. для оплаты серверов за Октябрь (всвязи с блокировками трафик упал в 3 раза), 1-2р., выручайте.
  

Летучая мышь (2 серии) (Ян Фрид ) [1978, мюзикл, комедия, DVDRip-AVC] pb.wtf

Летучая мышь через торрент pb.wtf

Размер: 2.36 GB | Добавлен: 3 года 1 мес. назад | Торрент скачан:32 раза
Скачать  

03-10-2016 19:58 Летучая мышь Скачать торрент  

Летучая мышь (2 серии)

Год выпуска: 1978
Страна: СССР
Жанр: мюзикл, комедия

Продолжительность: 01:04:54 + 01:07:44
Перевод: Не требуется [Русский]
Субтитры: русский
Режиссер: Ян Фрид
В ролях: Юрий Соломин (Генрих Айзенштайн), Людмила Максакова (Розалинда - жена Генриха), Виталий Соломин (Фальк - друг Генриха - директор театра), Лариса Удовиченко (Адель - горничная Розалинды), Олег Видов (Альфред), Игорь Дмитриев (Франк - директор тюрьмы), Юрий Васильев (князь Орловский), Евгений Весник (прокурор), Гликерия Богданова-Чеснокова (Амалия), Ольга Волкова (Лотта), Сергей Филиппов (лесничий), Александр Анисимов
Описание:
Жена узнает о том, что муж постоянно ей изменяет. Их общий друг и знакомый Фальк решает подшутить над бедной семейной парой. Своей служанке, мечтающей стать актрисой, он дает пригласительный билет на бал-маскарад и костюм «летучей мыши», чтобы та «охмурила» незадачливого ловеласа. Этот разговор слышит жена и принимает решение тоже отправиться на бал, чтобы снова влюбить в себя собственного мужа, но только под маской.

Качество: DVDRip-AVC
Формат: MKV
Видео: AVC, 712@759x574 (4:3), 1874 kbps, 25 fps, 0,183 bpp
Аудио №1: русский / AC3 / 2.0 / 48 kHz / 192 kbps /
Аудио №2: русский / AC3 / 5.1 / 48 kHz / 448 kbps /

General
Unique ID Летучая мышь.1979\Летучая мышь.1979.1 серия.mkv
Format : Matroska
Format version : Version 2
File size : 1.16 GiB
Duration : 1 h 4 min
Overall bit rate : 2 565 kb/s
Encoded date : UTC 2016-04-14 15:22:11
Writing application : mkvmerge v5.8.0 ('No Sleep / Pillow') built on Sep 2 2012 15:37:04
Writing library : libebml v1.2.3 + libmatroska v1.3.0
Comment : DVDRip-AVC
Encoded by : george$t®
Originally released : April 9th 2016

Video
ID : 1
Format : AVC
Format/Info : Advanced Video Codec
Format profile : High@L4.1
Format settings, CABAC : Yes
Format settings, ReFrames : 16 frames
Codec ID : V_MPEG4/ISO/AVC
Duration : 1 h 4 min
Bit rate : 1 874 kb/s
Width : 712 pixels
Height : 574 pixels
Display aspect ratio : 4:3
Original display aspect ratio : 4:3
Frame rate mode : Constant
Frame rate : 25.000 FPS
Color space : YUV
Chroma subsampling : 4:2:0
Bit depth : 8 bits
Scan type : Progressive
Bits/(Pixel*Frame) : 0.183
Stream size : 870 MiB (73%)
Title : Летучая мышь.1979.1 серия
Writing library : x264 core 148 r2638kMod 7599210
Encoding settings : cabac=1 / ref=16 / deblock=1:-2:0 / analyse=0x3:0x133 / me=umh / subme=11 / psy=1 / fade_compensate=0.00 / psy_rd=0.95:0.10 / mixed_ref=1 / me_range=32 / chroma_me=1 / trellis=2 / 8x8dct=1 / cqm=0 / deadzone=21,11 / fast_pskip=1 / chroma_qp_offset=-3 / threads=12 / lookahead_threads=2 / sliced_threads=0 / nr=0 / decimate=1 / interlaced=0 / bluray_compat=0 / constrained_intra=0 / fgo=0 / bframes=9 / b_pyramid=2 / b_adapt=2 / b_bias=0 / direct=1 / weightb=1 / open_gop=0 / weightp=2 / keyint=250 / keyint_min=25 / scenecut=40 / intra_refresh=0 / rc_lookahead=40 / rc=crf / mbtree=0 / crf=18.4000 / qcomp=0.65 / qpmin=0 / qpmax=69 / qpstep=4 / vbv_maxrate=50000 / vbv_bufsize=62500 / crf_max=0.0 / nal_hrd=none / filler=0 / ip_ratio=1.45 / pb_ratio=1.25 / aq=2:0.80
Language : Russian
Default : Yes
Forced : No
Color range : Limited
Color primaries : BT.601 PAL
Transfer characteristics : BT.470 System B, BT.470 System G
Matrix coefficients : BT.601

Audio #1
ID : 2
Format : AC-3
Format/Info : Audio Coding 3
Mode extension : CM (complete main)
Format settings, Endianness : Big
Codec ID : A_AC3
Duration : 1 h 4 min
Bit rate mode : Constant
Bit rate : 192 kb/s
Channel(s) : 2 channels
Channel positions : Front: L R
Sampling rate : 48.0 kHz
Frame rate : 31.250 FPS (1536 spf)
Compression mode : Lossy
Stream size : 89.1 MiB (7%)
Title : Оригинал: AC-3; 16 bit 48 Khz; 2.0 ch 192 Kbps; CBR
Language : Russian
Default : Yes
Forced : No

Audio #2
ID : 3
Format : AC-3
Format/Info : Audio Coding 3
Mode extension : CM (complete main)
Format settings, Endianness : Big
Codec ID : A_AC3
Duration : 1 h 4 min
Bit rate mode : Constant
Bit rate : 448 kb/s
Channel(s) : 6 channels
Channel positions : Front: L C R, Side: L R, LFE
Sampling rate : 48.0 kHz
Frame rate : 31.250 FPS (1536 spf)
Compression mode : Lossy
Stream size : 208 MiB (17%)
Title : Оригинал: AC-3; 16 bit 48 Khz; 5.1 ch 448 Kbps; CBR
Language : Russian
Default : No
Forced : No

Text
ID : 4
Format : UTF-8
Codec ID : S_TEXT/UTF8
Codec ID/Info : UTF-8 Plain Text
Title : Субтитры русские
Language : Russian
Default : No
Forced : No
Скриншоты:
pb.wtf



Скачать Летучая мышь через торрент http://i5.imageban.ru/out/2016/10/03/ac05b2877a957edd5cd1afe5466d5a34.jpg Скачать фильм Летучая мышь через торрент бесплантно в хорошем качестве Описание: Жена узнает о том, что муж постоянно ей изменяет. Их общий друг и знакомый Фальк решает подшутить над бедной семейной парой. ... 10 10 3
Info! Золотая раздача, скачанное не засчитывается.
Торрент: Зарегистрирован [2016-10-03 19:58] · скачан: 32 раз
Статус: √ проверено
Размер: 2.36 GB
Как cкачать? Как скачать Летучая мышь через торрент | qTorrent

% Раздел Тема Автор DL S | L
National Geographic [ 610 MB ] Nat Geo Wild: Гигантские плотоядные летучие мыши / Giant Carnivorous Bats [2015 документальный HDTVRip ] Armstrong Скачать
1 | 0
National Geographic [ 1.59 GB ] Удивительные летучие мыши / Incredible Bats [2016 Документальный природа флора фауна HDTVRip 720p ] [Велес] Armstrong Скачать
1 | 0
Порно фильмы с сюжетом [ 1.33 GB ] Пародия: Девочка Летучая Мышь XXX / Batgirl XXX:An Extreme Comixxx Parody [2012 Feature Couples Parody / Spoof. DVDRip Оригинал] Pir@tya2010 Скачать
1 | 0


>> Регистрируемся здесь <<






Отзывы и комментарии о схеме читаем и пишем здесь: ---> Отзывы и комментарии о схеме

Новые благодарочки в телеграм довольных пользователей:
скриншот   скриншот   скриншот   скриншот   скриншот
    Дорогой пользователь! Огромная просьба, поблагодарите релизера, оцените раздачу и оставьте свои комментарий, если Вы скачали Летучая мышь через торрент бесплатно! Внесите свою лепту в развитие PiratBit!
    Комментировать посты могут только пользователи прошедшие не сложную регистрацию
    Показать сообщения:    

    Летучая мышь через торрент
    Скачать бесплатно Летучая мышь
    Летучая мышь скачать торрент
    Летучая мышь смотреть онлайн
    Cкачать фильм Летучая мышь бесплатно
    Летучая мышь скачать торрент в хорошем качестве
    Летучая мышь смотреть онлайн бесплатно в хорошем качестве


    Вы не можете начинать темы
    Вы не можете отвечать на сообщения
    Вы не можете редактировать свои сообщения
    Вы не можете удалять свои сообщения
    Вы не можете голосовать в опросах
    Вы не можете прикреплять файлы к сообщениям
    Вы можете скачивать файлы