новый адрес
Мега распродажа FORZA HORIZON 4 ULTIMATE+ВСЕ DLC+ОНЛАЙН всего за 499р. 349 руб. (супер цена). Внимание количество ограничено!!!

iTunes

1+1

iTunes

мы

iTunes

1

iTunes

Чернобыль

iTunes

Ральф против интернета

Лицензия

ПШазам

Лицензия

Оно 2

Лицензия

30
pack

ВАЖНО

!!Акция!!

Alien_RageХит недели

RePack

Resident Evil 21

ИГРА 18+

pack

RePack

jed

!!Акция!!

Alien_Rage

RePack

fifa19

RePack

Assassins Creed: Odyssey

RePack

NEED FOR SPEED™ PAYBACK

3 сезон

9 сезон

Бесстыжие 9 сезон

Все сериалы

все сериалы на PB.wtf

RePack

FAR CRY 5
Ребята, катастрофически не хватает 1900р. для оплаты серверов за Октябрь (всвязи с блокировками трафик упал в 3 раза), 1-2р., выручайте.
  

Невероятное пари, или Истинное происшествие, благополучно завершившееся сто лет назад (Владимир Мотыль ) [1984, комедия, DVDRip-AVC] pb.wtf

Невероятное пари, или Истинное происшествие, благополучно завершившееся сто лет назад через торрент pb.wtf

Размер: 756 MB | Добавлен: 3 года 1 мес. назад | Торрент скачан:18 раз
Скачать  

04-10-2016 06:57 Невероятное пари, или Истинное происшествие, благополучно завершившееся сто лет назад Скачать торрент  

Невероятное пари, или Истинное происшествие, благополучно завершившееся сто лет назад

Год выпуска: 1984
Страна: СССР
Жанр: комедия

Продолжительность: 01:15:46
Перевод: Не требуется [Русский]
Режиссер: Владимир Мотыль
В ролях: Борис Плотников (юрист), Алексей Петренко (банкир), Ирина Муравьёва (Соня Книгина), Михаил Козаков (Дудочка), Станислав Садальский (Брыкович), Алексей Кожевников (Пётр Стрижин), Людмила Целиковская (мадам Брыкович), Сергей Скрипкин (Фёдор Нилов), Иван Насонов (глухонемой слуга), Станислав Соколов (гость у банкира), Николай Боярский (аптекарь), Татьяна Агафонова (Марья, жена спожника)
Описание:
По мотивам рассказов Aнтoнa Пaвлoвичa Чexoвa «Пapи», «Жилeц», «Из вocпoминaний идeaлиcтa», «Heocтopoжнocть», «Ha мeльницe», «Caпoжник и нeчиcтaя cилa».
Moлoдoй cтyдeнт-юpиcт и кpyпный бaнкиp зaключaют пapи нa двa миллиoнa pyблeй. Пo ycлoвию пapи cтyдeнт дoлжeн был пpocидeть 15 лeт в oдинoчнoй кaмepe.

Качество: DVDRip-AVC
Формат: MKV
Видео: AVC, 720x536 (4:3), 1220 kbps, 25 fps, 0,126 bpp
Аудио: русский / AC3 / 2.0 / 48 kHz / 160 kbps /

General
Unique ID Невероятное пари или истинное происшествие благополучно завершившееся сто лет назад.mkv
Format : Matroska
Format version : Version 4 / Version 2
File size : 756 MiB
Duration : 1 h 15 min
Overall bit rate : 1 396 kb/s
Movie name : Невероятное пари или истинное происшествие благополучно завершившееся сто лет назад (rip by smithland)
Encoded date : UTC 2016-09-14 14:20:03
Writing application : mkvmerge v9.4.2 ('So High') 64bit
Writing library : libebml v1.3.4 + libmatroska v1.4.5
Cover : Yes
Attachments : COVER.jpg

Video
ID : 1
Format : AVC
Format/Info : Advanced Video Codec
Format profile : High@L4
Format settings, CABAC : Yes
Format settings, ReFrames : 10 frames
Codec ID : V_MPEG4/ISO/AVC
Duration : 1 h 15 min
Bit rate : 1 220 kb/s
Width : 720 pixels
Height : 536 pixels
Display aspect ratio : 4:3
Frame rate mode : Constant
Frame rate : 25.000 FPS
Color space : YUV
Chroma subsampling : 4:2:0
Bit depth : 8 bits
Scan type : Progressive
Bits/(Pixel*Frame) : 0.126
Stream size : 669 MiB (88%)
Writing library : x264 core 146 r2538 121396c
Encoding settings : cabac=1 / ref=10 / deblock=1:-2:-1 / analyse=0x3:0x133 / me=umh / subme=11 / psy=1 / psy_rd=1.25:0.30 / mixed_ref=1 / me_range=36 / chroma_me=1 / trellis=2 / 8x8dct=1 / cqm=0 / deadzone=21,11 / fast_pskip=1 / chroma_qp_offset=-4 / threads=12 / lookahead_threads=1 / sliced_threads=0 / nr=0 / decimate=0 / interlaced=0 / bluray_compat=0 / constrained_intra=0 / bframes=7 / b_pyramid=2 / b_adapt=1 / b_bias=0 / direct=1 / weightb=1 / open_gop=1 / weightp=2 / keyint=250 / keyint_min=25 / scenecut=40 / intra_refresh=0 / rc_lookahead=40 / rc=abr / mbtree=1 / bitrate=1220 / ratetol=1.0 / qcomp=0.60 / qpmin=0 / qpmax=69 / qpstep=4 / ip_ratio=1.40 / aq=1:1.10
Language : Russian
Default : Yes
Forced : Yes
Color range : Limited
Color primaries : Generic film

Audio
ID : 2
Format : AC-3
Format/Info : Audio Coding 3
Mode extension : CM (complete main)
Format settings, Endianness : Big
Codec ID : A_AC3
Duration : 1 h 15 min
Bit rate mode : Constant
Bit rate : 160 kb/s
Channel(s) : 2 channels
Channel positions : Front: L R
Sampling rate : 48.0 kHz
Frame rate : 31.250 FPS (1536 spf)
Compression mode : Lossy
Stream size : 86.7 MiB (11%)
Language : Russian
Default : Yes
Forced : Yes
Скриншоты:
pb.wtf



Скачать Невероятное пари, или Истинное происшествие, благополучно завершившееся сто лет назад через торрент http://i5.imageban.ru/out/2016/10/04/28e0b14bdea2c2d47e93886aa7f4052b.jpg Скачать фильм Невероятное пари, или Истинное происшествие, благополучно завершившееся сто лет назад через торрент бесплантно в хорошем качестве Описание: По мотивам рассказов Aнтoнa Пaвлoвичa Чexoвa «Пapи», «Жилeц», «Из вocпoминaний идeaлиcтa», «Heocтopoжнocть», «Ha мeльницe», ... 10 10 3
Info! Серебряная раздача, засчитывается только 50% скачанного.
Торрент: Зарегистрирован [2016-10-04 06:57] · скачан: 18 раз
Статус: √ проверено
Размер: 756 MB
Как cкачать? Как скачать Невероятное пари, или Истинное происшествие, благополучно завершившееся сто лет назад через торрент | qTorrent


>> Регистрируемся здесь <<






Отзывы и комментарии о схеме читаем и пишем здесь: ---> Отзывы и комментарии о схеме

Новые благодарочки в телеграм довольных пользователей:
скриншот   скриншот   скриншот   скриншот   скриншот
    Дорогой пользователь! Огромная просьба, поблагодарите релизера, оцените раздачу и оставьте свои комментарий, если Вы скачали Невероятное пари, или Истинное происшествие, благополучно завершившееся сто лет назад через торрент бесплатно! Внесите свою лепту в развитие PiratBit!
    Комментировать посты могут только пользователи прошедшие не сложную регистрацию
    Показать сообщения:    

    Невероятное пари, или Истинное происшествие, благополучно завершившееся сто лет назад через торрент
    Скачать бесплатно Невероятное пари, или Истинное происшествие, благополучно завершившееся сто лет назад
    Невероятное пари, или Истинное происшествие, благополучно завершившееся сто лет назад скачать торрент
    Невероятное пари, или Истинное происшествие, благополучно завершившееся сто лет назад смотреть онлайн
    Cкачать фильм Невероятное пари, или Истинное происшествие, благополучно завершившееся сто лет назад бесплатно
    Невероятное пари, или Истинное происшествие, благополучно завершившееся сто лет назад скачать торрент в хорошем качестве
    Невероятное пари, или Истинное происшествие, благополучно завершившееся сто лет назад смотреть онлайн бесплатно в хорошем качестве


    Вы не можете начинать темы
    Вы не можете отвечать на сообщения
    Вы не можете редактировать свои сообщения
    Вы не можете удалять свои сообщения
    Вы не можете голосовать в опросах
    Вы не можете прикреплять файлы к сообщениям
    Вы можете скачивать файлы