новый адрес
Мега распродажа FORZA HORIZON 4 ULTIMATE+ВСЕ DLC+ОНЛАЙН всего за 499р. 349 руб. (супер цена). Внимание количество ограничено!!!

iTunes

1+1

iTunes

мы

iTunes

1

iTunes

Чернобыль

iTunes

Ральф против интернета

Лицензия

ПШазам

Лицензия

Игра престолов

Лицензия

30
pack

ВАЖНО

!!Акция!!

Alien_RageХит недели

RePack

Resident Evil 21

ИГРА 18+

pack

RePack

Metro:Exodus

!!Акция!!

Alien_Rage

RePack

fifa19

RePack

Assassins Creed: Odyssey

RePack

NEED FOR SPEED™ PAYBACK

3 сезон

9 сезон

Бесстыжие 9 сезон

Все сериалы

все сериалы на PB.wtf

RePack

FAR CRY 5
Ребята, катастрофически не хватает 1900р. для оплаты серверов за Октябрь (всвязи с блокировками трафик упал в 3 раза), 1-2р., выручайте.
  

Демидовы (Ярополк Лапшин ) [1983, драма, биография, DVDRip-AVC] pb.wtf

Демидовы через торрент pb.wtf

Размер: 1.59 GB | Добавлен: 3 года 1 мес. назад | Торрент скачан:27 раз
Скачать  

04-10-2016 07:11 Демидовы Скачать торрент  

Демидовы

Год выпуска: 1983
Страна: СССР
Жанр: драма, биография

Продолжительность: 02:27:23
Перевод: Не требуется [Русский]
Режиссер: Ярополк Лапшин
В ролях: Евгений Евстигнеев (Никита Демидов), Вадим Спиридонов (Акинфий Демидов), Александр Лазарев (Петр Первый), Леонид Куравлёв (светлейший князь Меншиков), Михаил Козаков (Бирон), Татьяна Ташкова (Марья), Любовь Полехина (Евдокия Коробкова-Демидова), Людмила Чурсина (Екатерина I), Лидия Федосеева-Шукшина (Анна Иоанновна), Валерий Золотухин (Пантелей), Николай Скоробогатов (Гудилин), Юрий Назаров (Стренберг)
Описание:
Историческая сага о династии первых промышленников в России. В основе сюжета первой серии лежит история взаимоотношений Демидовых с Петром I. В короткий срок по указанию Петра Акинфий Демидов наладил производство чугуна, пушек, что позволило России одержать ряд исторических побед.
Действие второй серии развивается в период царствования Анны Иоанновны, когда Акинфий Демидов стал полновластным хозяином на Урале и сумел противопоставить себя жестокому и хитрому правителю Бирону.

Качество: DVDRip-AVC
Формат: MKV
Видео: AVC, 704x528 (4:3), 1324 kbps, 25 fps, 0,143 bpp
Аудио: русский / AC3 / 2.0 / 48 kHz / 192 kbps /

General
Unique ID Демидовы.2 серии.mkv
Format : Matroska
Format version : Version 4 / Version 2
File size : 1.59 GiB
Duration : 2 h 27 min
Overall bit rate : 1 547 kb/s
Movie name : Release for Topmost
Encoded date : UTC 2016-09-13 03:53:40
Writing application : mkvmerge v6.2.0 ('Promised Land') built on Apr 28 2013 12:22:01
Writing library : libebml v1.3.0 + libmatroska v1.4.0

Video
ID : 1
Format : AVC
Format/Info : Advanced Video Codec
Format profile : High@L4.1
Format settings, CABAC : Yes
Format settings, ReFrames : 8 frames
Codec ID : V_MPEG4/ISO/AVC
Duration : 2 h 27 min
Bit rate : 1 325 kb/s
Width : 704 pixels
Height : 528 pixels
Display aspect ratio : 4:3
Frame rate mode : Constant
Frame rate : 25.000 FPS
Color space : YUV
Chroma subsampling : 4:2:0
Bit depth : 8 bits
Scan type : Progressive
Bits/(Pixel*Frame) : 0.143
Stream size : 1.36 GiB (86%)
Title : Демидовы (Release for Topmost)
Writing library : x264 core 146 r2538bm 121396c
Encoding settings : cabac=1 / ref=8 / deblock=1:0:0 / analyse=0x3:0x133 / me=umh / subme=9 / psy=1 / psy_rd=1.00:0.00 / mixed_ref=1 / me_range=16 / chroma_me=1 / trellis=2 / 8x8dct=1 / cqm=0 / deadzone=21,11 / fast_pskip=1 / chroma_qp_offset=-2 / threads=3 / lookahead_threads=1 / sliced_threads=0 / nr=0 / decimate=1 / interlaced=0 / bluray_compat=0 / constrained_intra=0 / bframes=3 / b_pyramid=2 / b_adapt=2 / b_bias=0 / direct=3 / weightb=1 / open_gop=0 / weightp=2 / keyint=250 / keyint_min=25 / scenecut=40 / intra_refresh=0 / rc_lookahead=60 / rc=crf / mbtree=1 / crf=16.8 / qcomp=0.60 / qpmin=0 / qpmax=69 / qpstep=4 / ip_ratio=1.40 / aq=1:1.00
Language : Russian
Default : Yes
Forced : No

Audio
ID : 2
Format : AC-3
Format/Info : Audio Coding 3
Mode extension : CM (complete main)
Format settings, Endianness : Big
Codec ID : A_AC3
Duration : 2 h 27 min
Bit rate mode : Constant
Bit rate : 192 kb/s
Channel(s) : 2 channels
Channel positions : Front: L R
Sampling rate : 48.0 kHz
Frame rate : 31.250 FPS (1536 spf)
Compression mode : Lossy
Delay relative to video : 2 s 500 ms
Stream size : 202 MiB (12%)
Title : AC-3; 16 bit 48 Khz; 2ch 192 Kbps; CBR | Exner®
Language : Russian
Default : Yes
Forced : No
Скриншоты:
pb.wtf



Скачать Демидовы через торрент http://i6.imageban.ru/out/2016/10/04/5d772caa4764379b576f6d5d16a67394.jpg Скачать фильм Демидовы через торрент бесплантно в хорошем качестве Описание: Историческая сага о династии первых промышленников в России. В основе сюжета первой серии лежит история взаимоотношений Демидовых ... 9 10 2
Торрент: Зарегистрирован [2016-10-04 07:11] · скачан: 27 раз
Статус: √ проверено
Размер: 1.59 GB
Как cкачать? Как скачать Демидовы через торрент | qTorrent


>> Регистрируемся здесь <<






Отзывы и комментарии о схеме читаем и пишем здесь: ---> Отзывы и комментарии о схеме

Новые благодарочки в телеграм довольных пользователей:
скриншот   скриншот   скриншот   скриншот   скриншот
    Дорогой пользователь! Огромная просьба, поблагодарите релизера, оцените раздачу и оставьте свои комментарий, если Вы скачали Демидовы через торрент бесплатно! Внесите свою лепту в развитие PiratBit!
    Комментировать посты могут только пользователи прошедшие не сложную регистрацию
    Показать сообщения:    

    Демидовы через торрент
    Скачать бесплатно Демидовы
    Демидовы скачать торрент
    Демидовы смотреть онлайн
    Cкачать фильм Демидовы бесплатно
    Демидовы скачать торрент в хорошем качестве
    Демидовы смотреть онлайн бесплатно в хорошем качестве


    Вы не можете начинать темы
    Вы не можете отвечать на сообщения
    Вы не можете редактировать свои сообщения
    Вы не можете удалять свои сообщения
    Вы не можете голосовать в опросах
    Вы не можете прикреплять файлы к сообщениям
    Вы можете скачивать файлы