новый адрес пиратбит piratbit
Мега распродажа FORZA HORIZON 4 ULTIMATE+ВСЕ DLC+ОНЛАЙН всего за 499р. 349 руб. (супер цена). Внимание количество ограничено!!!

iTunes

1+1

iTunes

мы

iTunes

1

iTunes

Чернобыль

iTunes

Ральф против интернета

Лицензия

ПШазам

Лицензия

Игра престолов

Лицензия

30
pack

ВАЖНО

!!Акция!!

Alien_RageХит недели

RePack

Resident Evil 21

ИГРА 18+

pack

RePack

Metro:Exodus

!!Акция!!

Alien_Rage

RePack

fifa19

RePack

Assassins Creed: Odyssey

RePack

NEED FOR SPEED™ PAYBACK

3 сезон

9 сезон

Бесстыжие 9 сезон

Все сериалы

все сериалы на PB.wtf

RePack

FAR CRY 5
Ребята, катастрофически не хватает 1900р. для оплаты серверов за Октябрь (всвязи с блокировками трафик упал в 3 раза), 1-2р., выручайте.
  

Она Вас любит (Семен Деревянский, Рафаил Суслович) [1956, СССР, мелодрама, комедия, DVDRip от AVP Studio] pb.wtf

Она Вас любит через торрент pb.wtf

Размер: 1.09 GB | Добавлен: 3 года 1 мес. назад | Торрент скачан:16 раз
Скачать  

04-10-2016 07:58 Она Вас любит Скачать торрент  

Она Вас любит
Страна: СССР
Производство: Ленфильм

Жанр: мелодрама, комедия
Год выпуска: 1956
Продолжительность: 01:19:58

Перевод: Не требуется
Cубтитры: нет
Оригинальная аудиодорожка: русский

Режиссер: Семен Деревянский, Рафаил Суслович

В ролях:
Георгий Вицин, Инна Кмит, Лидия Сухаревская, Тамара Носова, Александр Ширвиндт, Игорь Дмитриев, Лидия Атманаки, Константин Сорокин, Рэм Лебедев...
Полный список актёров

Описание:
Скромный и застенчивый работник зоопарка по фамилии Канарейкин влюбляется в девушку с обложки журнала – победительницу легкоатлетических соревнований. Он пишет ей письмо, но его приятель-фотограф, случайно вместо фотографии Канарейкина вкладывает в конверт фото другого молодого человека - певца, дипломанта конкурса вокалистов, красавца, любимца женщин...

Источник: DVD5 R5
Качество видео: DVDRip
Формат видео: AVI

Видео: 688x512 (4:3), 25 fps, XviD ~ 1745 kbps avg, 0.198 bit/pixel
Аудио: 48 kHz, Dolby Digital AC3 2.0, 192 kbps

Раздача от:
Общее
Полное имя : Ona.vas.lyubit.1956.DVDRip_[New-team]_by_AVP_Studio.avi
Формат : AVI
Формат/Информация : Audio Video Interleave
Размер файла : 1,09 Гбайт
Продолжительность : 1 ч. 19 м.
Общий поток : 1947 Кбит/сек
Программа кодирования : VirtualDubMod 1.5.10.3 | www.virtualdub-fr.org || (build 2550/release)
Библиотека кодирования : VirtualDubMod build 2550/release

Видео
Идентификатор : 0
Формат : MPEG-4 Visual
Профиль формата : Advanced Simple@L5
Параметр BVOP формата : 1
Параметр QPel формата : Нет
Параметр GMC формата : Без точки перехода
Параметр матрицы формата : Выборочная
Идентификатор кодека : XVID
Идентификатор кодека/Подсказка : XviD
Продолжительность : 1 ч. 19 м.
Битрейт : 1745 Кбит/сек
Ширина : 688 пикселей
Высота : 512 пикселей
Соотношение сторон : 4:3
Частота кадров : 25,000 кадров/сек
Цветовое пространство : YUV
Субдискретизация насыщенности : 4:2:0
Битовая глубина : 8 бит
Тип развёртки : Прогрессивная
Метод сжатия : С потерями
Бит/(Пиксели*Кадры) : 0.198
Размер потока : 998 Мбайт (90%)
Библиотека кодирования : XviD 1.2.1 (UTC 2008-12-04)

Аудио
Идентификатор : 1
Формат : AC-3
Формат/Информация : Audio Coding 3
Расширение режима : CM (complete main)
Параметр Endianness формата : Big
Идентификатор кодека : 2000
Продолжительность : 1 ч. 19 м.
Вид битрейта : Постоянный
Битрейт : 192 Кбит/сек
Каналы : 2 канала
Расположение каналов : Front: L R
Частота : 48,0 КГц
Частота кадров : 31,250 кадров/сек (1536 spf)
Метод сжатия : С потерями
Размер потока : 110 Мбайт (10%)
Выравнивание : Разделение по промежуткам
Продолжительность промежутка : 40 мс. (1,00 видеокадр)
Время предзагрузки промежутка : 500 мс
pb.wtf



Скачать Она Вас любит через торрент http://s03.radikal.ru/i176/1610/ef/38abc7a1ec13.png Скачать фильм Она Вас любит через торрент бесплантно в хорошем качестве Описание:Скромный и застенчивый работник зоопарка по фамилии Канарейкин влюбляется в девушку с обложки журнала – победительницу ... 10 10 2
Info! Золотая раздача, скачанное не засчитывается.
Торрент: Зарегистрирован [2016-10-04 07:58] · скачан: 16 раз
Статус: √ проверено
Размер: 1.09 GB
Как cкачать? Как скачать Она Вас любит через торрент | qTorrent

% Раздел Тема Автор DL S | L
Кино СССР [ 1.09 GB ] Она Вас любит [1956 СССР DVDRip-AVC от AVP Studio] AVP Studio Скачать
1 | 0
Кино СССР [ 743 MB ] Она Вас любит [1956 СССР DVDRip от AVP Studio] AVP Studio Скачать
1 | 0
T Фильмы 2015 (Звук TS, Cam, VO, DVO) [ 1.43 GB ] Они возвращаются / Ellos Volvieron [2015 HDRip Любительский одноголосый "Васька Куролесов"] coc900 Скачать
1 | 0


>> Регистрируемся здесь <<






Отзывы и комментарии о схеме читаем и пишем здесь: ---> Отзывы и комментарии о схеме

Новые благодарочки в телеграм довольных пользователей:
скриншот   скриншот   скриншот   скриншот   скриншот
    Дорогой пользователь! Огромная просьба, поблагодарите релизера, оцените раздачу и оставьте свои комментарий, если Вы скачали Она Вас любит через торрент бесплатно! Внесите свою лепту в развитие PiratBit!
    Комментировать посты могут только пользователи прошедшие не сложную регистрацию
    Показать сообщения:    

    Она Вас любит через торрент
    Скачать бесплатно Она Вас любит
    Она Вас любит скачать торрент
    Она Вас любит смотреть онлайн
    Cкачать фильм Она Вас любит бесплатно
    Она Вас любит скачать торрент в хорошем качестве
    Она Вас любит смотреть онлайн бесплатно в хорошем качестве


    Вы не можете начинать темы
    Вы не можете отвечать на сообщения
    Вы не можете редактировать свои сообщения
    Вы не можете удалять свои сообщения
    Вы не можете голосовать в опросах
    Вы не можете прикреплять файлы к сообщениям
    Вы можете скачивать файлы