новый адрес пиратбит piratbit
Мега распродажа FORZA HORIZON 4 ULTIMATE+ВСЕ DLC+ОНЛАЙН всего за 499р. 349 руб. (супер цена). Внимание количество ограничено!!!

iTunes

1+1

iTunes

мы

iTunes

1

iTunes

Чернобыль

iTunes

Ральф против интернета

Лицензия

ПШазам

Лицензия

Игра престолов

Лицензия

30
pack

ВАЖНО

!!Акция!!

Alien_RageХит недели

RePack

Resident Evil 21

ИГРА 18+

pack

RePack

Metro:Exodus

!!Акция!!

Alien_Rage

RePack

fifa19

RePack

Assassins Creed: Odyssey

RePack

NEED FOR SPEED™ PAYBACK

3 сезон

9 сезон

Бесстыжие 9 сезон

Все сериалы

все сериалы на PB.wtf

RePack

FAR CRY 5
Ребята, катастрофически не хватает 1900р. для оплаты серверов за Октябрь (всвязи с блокировками трафик упал в 3 раза), 1-2р., выручайте.
  

Повесть о настоящем человеке (Александр Столпер) [1948, драма, военный, DVDRip-AVC] pb.wtf

Повесть о настоящем человеке через торрент pb.wtf

Размер: 2.8 GB | Добавлен: 3 года 1 мес. назад | Торрент скачан:5 раз
Скачать  

04-10-2016 09:54 Повесть о настоящем человеке Скачать торрент  

Повесть о настоящем человеке

Год выпуска: 1948
Страна: СССР
Жанр: драма, военный

Продолжительность: 01:29:55
Перевод: Не требуется [Русский]
Режиссер: Александр Столпер
В ролях: Павел Кадочников (Алексей Мересьев), Николай Охлопков (комиссар Воробьев), Алексей Дикий (Василий Васильевич), Василий Меркурьев (Степан Иванович), Борис Бабочкин (командир полка), Тамара Макарова (Клавдия Михайловна), Александр Михайлов (Петров), Любовь Соколова (Варвара), Лев Свердлин (Наумов), Людмила Целиковская (Зиночка), Сергей Бондарчук (Гвоздев, в титрах не указан), Михаил Глузский (в титрах не указан)
Описание:
В основе драматической истории - реальные факты биографии летчика-истребителя Алексея Маресьева. Сбитый в бою над оккупированной территорией, он три недели пробирался по заснеженным лесам, пока не попал к партизанам. Потеряв обе ноги, герой впоследствии проявляет удивительную силу характера, вновь садится за штурвал самолета и пополняет счет воздушных побед над врагом.

Качество: DVDRip-AVC
Формат: MKV
Видео: AVC, 698x576 (1.212), 4173 kbps, 25 fps, 0,415 bpp
Аудио: русский / AC3 / 1 / 48 kHz / 192 kbps /

General
Unique ID Повесть.о.настоящем.человеке.1948.mkv
Format : Matroska
Format version : Version 4 / Version 2
File size : 2.80 GiB
Duration : 1 h 29 min
Overall bit rate : 4 454 kb/s
Movie name : Повесть о настоящем человеке 1948
Encoded date : UTC 2015-10-12 17:18:18
Writing application : mkvmerge v8.3.0 ('Over the Horizon') 64bit
Writing library : libebml v1.3.1 + libmatroska v1.4.2
Cover : Yes
Attachments : cover.jpg / x264.log

Video
ID : 1
Format : AVC
Format/Info : Advanced Video Codec
Format profile : High@L4
Format settings, CABAC : Yes
Format settings, ReFrames : 16 frames
Codec ID : V_MPEG4/ISO/AVC
Duration : 1 h 29 min
Bit rate : 4 173 kb/s
Width : 698 pixels
Height : 576 pixels
Display aspect ratio : 1.212
Frame rate mode : Constant
Frame rate : 25.000 FPS
Color space : YUV
Chroma subsampling : 4:2:0
Bit depth : 8 bits
Scan type : Progressive
Bits/(Pixel*Frame) : 0.415
Stream size : 2.62 GiB (94%)

Writing library : x264 core 148 r2597kMod e86f3a1
Encoding settings : cabac=1 / ref=16 / deblock=1:-1:-1 / analyse=0x3:0x133 / me=umh / subme=11 / psy=1 / fade_compensate=0.00 / psy_rd=1.00:0.00 / mixed_ref=1 / me_range=48 / chroma_me=1 / trellis=2 / 8x8dct=1 / cqm=0 / deadzone=21,11 / fast_pskip=0 / chroma_qp_offset=-2 / threads=12 / lookahead_threads=3 / sliced_threads=0 / nr=0 / decimate=1 / interlaced=0 / bluray_compat=0 / constrained_intra=0 / fgo=0 / bframes=16 / b_pyramid=2 / b_adapt=2 / b_bias=0 / direct=3 / weightb=1 / open_gop=0 / weightp=2 / keyint=250 / keyint_min=25 / scenecut=40 / intra_refresh=0 / rc=crf / mbtree=0 / crf=18.0000 / qcomp=0.60 / qpmin=0 / qpmax=69 / qpstep=4 / ip_ratio=1.40 / pb_ratio=1.30 / aq=1:0.90
Language : Russian
Default : Yes
Forced : No
Color range : Limited
Color primaries : BT.601 PAL
Transfer characteristics : BT.470 System B, BT.470 System G
Matrix coefficients : BT.601

Audio
ID : 2
Format : AC-3
Format/Info : Audio Coding 3
Mode extension : CM (complete main)
Format settings, Endianness : Big
Codec ID : A_AC3
Duration : 1 h 29 min
Bit rate mode : Constant
Bit rate : 192 kb/s
Channel(s) : 1 channel
Channel positions : Front: C
Sampling rate : 48.0 kHz
Frame rate : 31.250 FPS (1536 spf)
Compression mode : Lossy
Stream size : 123 MiB (4%)
Language : Russian
Default : Yes
Forced : No
Скриншоты:
pb.wtf



Скачать Повесть о настоящем человеке через торрент http://i3.imageban.ru/out/2016/10/04/c0b8bb6e6671e1e0cc6044f4a7dc5ad3.jpg Скачать фильм Повесть о настоящем человеке через торрент бесплантно в хорошем качестве Описание: В основе драматической истории - реальные факты биографии летчика-истребителя Алексея Маресьева. Сбитый в бою над оккупированной ... 10 10 4
Info! Золотая раздача, скачанное не засчитывается.
Торрент: Зарегистрирован [2016-10-04 09:54] · скачан: 5 раз
Статус: √ проверено
Размер: 2.8 GB
Как cкачать? Как скачать Повесть о настоящем человеке через торрент | qTorrent


>> Регистрируемся здесь <<






Отзывы и комментарии о схеме читаем и пишем здесь: ---> Отзывы и комментарии о схеме

Новые благодарочки в телеграм довольных пользователей:
скриншот   скриншот   скриншот   скриншот   скриншот

04-10-2016 10:28 Повесть о настоящем человеке Скачать торрент  

Ели в своё время книгу осилил, о бедном пилоте упавшем в тайге ,не знал что еще и экранизация на это ни о чем была .pb.wtf



23-12-2017 07:57 Повесть о настоящем человеке Скачать торрент  

Раздавать кто нибудь будет? Вторую неделю не алё...pb.wtf



    Дорогой пользователь! Огромная просьба, поблагодарите релизера, оцените раздачу и оставьте свои комментарий, если Вы скачали Повесть о настоящем человеке через торрент бесплатно! Внесите свою лепту в развитие PiratBit!
    Комментировать посты могут только пользователи прошедшие не сложную регистрацию
    Показать сообщения:    

    Повесть о настоящем человеке через торрент
    Скачать бесплатно Повесть о настоящем человеке
    Повесть о настоящем человеке скачать торрент
    Повесть о настоящем человеке смотреть онлайн
    Cкачать фильм Повесть о настоящем человеке бесплатно
    Повесть о настоящем человеке скачать торрент в хорошем качестве
    Повесть о настоящем человеке смотреть онлайн бесплатно в хорошем качестве


    Вы не можете начинать темы
    Вы не можете отвечать на сообщения
    Вы не можете редактировать свои сообщения
    Вы не можете удалять свои сообщения
    Вы не можете голосовать в опросах
    Вы не можете прикреплять файлы к сообщениям
    Вы можете скачивать файлы