Ссылка на приватное зеркало всего за 1$. Внимание количество ограничено!!!

iTunes

iTunes

iTunes

1

iTunes

iTunes

iTunes

iTunes

iTunes

30
pack

Новость дня

ВАЖНО

!!Акция!!

Alien_RageХит недели

RePack

Resident Evil 21

ИГРА 18+

pack

RePack

jed

!!Акция!!

Alien_Rage

RePack

fifa19

RePack

Assassins Creed: Odyssey

RePack

NEED FOR SPEED™ PAYBACK

4 сезон

9 сезон

Бесстыжие 9 сезон

Все сериалы

все сериалы на PB.wtf

RePack

FAR CRY 5
  

Срочно выйду замуж (Сергей Чекалов) [2015 г., комедия, мелодрама, WEB-DLRip,Оригинал "iTunes"] pb.wtf

Срочно выйду замуж через торрент pb.wtf

Размер: 2.04 GB | Добавлен: 3 года 7 мес. назад | Торрент скачан:180 раз
Скачать  

31-01-2016 10:16 Срочно выйду замуж Скачать торрент  

Срочно выйду замуж
Год выпуска: 2015
Страна: Россия / Art Pictures Studio, WeiT Media
Жанр: комедия, мелодрама
Продолжительность: 01:43:33
Перевод: Оригинал (iTunes)

Режиссер: Сергей Чекалов

IMDB 5.90 (7)


В ролях: Юлия Ковальчук, Алексей Чумаков, Екатерина Маликова, Сергей Бурунов, Ольга Прокофьева, Вячеслав Гришечкин, Нонна Гришаева, Анатолий Белый, Алика Смехова, Эвклид Кюрдзидис

Описание: Женя — редактор-трудоголик, Стас — светский фотограф. Она амбициозна, а у него по жизни — ни задачи, ни проблемы. Женя хочет и может стать главным редактором журнала, но для этого у нее срочно должен появиться супруг! Условие акционеров издания — семейная аудитория нуждается в семейном руководителе. И на решение этой задачи у девушки есть всего неделя. Стас берется помочь девушке, в картотеке у модного фотографа есть немало холостяков, которые вполне могли бы подойти на роль мужа. Но неожиданно Женя понимает, что совсем не расчетлива, а Стас с удивлением обнаруживает, что влюблен.

Качество: WEB-DLRip
Формат: AVI
Видео кодек: XviD
Аудио кодек: AC3
Видео: 720x304 (2.37:1), 25 fps, XviD build 50 ~2427 kbps avg, 0.44 bit/pixel
Аудио: 48 kHz, AC3 Dolby Digital, 3/2 (L,C,R,l,r) + LFE ch, ~384 kbps
скриншот   скриншот   скриншот   скриншот   скриншот   скриншот  

Общее
Полное имя : F:\кино\Срочно выйду замуж.2015.O.WEB-DLRip.avi
Формат : AVI
Формат/Информация : Audio Video Interleave
Профиль формата : OpenDML
Размер файла : 2,04 Гбайт
Продолжительность : 1 ч. 43 м.
Общий поток : 2824 Кбит/сек
Программа кодирования : VirtualDubMod 1.5.10.3 | www.virtualdub-fr.org || (build 2550/release)
Библиотека кодирования : VirtualDubMod build 2550/release

Видео
Идентификатор : 0
Формат : MPEG-4 Visual
Профиль формата : Advanced Simple@L5
Параметр BVOP формата : 2
Параметр QPel формата : Нет
Параметр GMC формата : Без точки перехода
Параметр матрицы формата : Default (H.263)
Идентификатор кодека : XVID
Идентификатор кодека/Подсказка : XviD
Продолжительность : 1 ч. 43 м.
Битрейт : 2427 Кбит/сек
Ширина : 720 пикселей
Высота : 304 пикселя
Соотношение сторон : 2,35:1
Частота кадров : 25,000 кадров/сек
Цветовое пространство : YUV
Субдискретизация насыщенности : 4:2:0
Битовая глубина : 8 бит
Тип развёртки : Прогрессивная
Метод сжатия : С потерями
Бит/(Пиксели*Кадры) : 0.444
Размер потока : 1,76 Гбайт (86%)
Библиотека кодирования : XviD 1.2.1 (UTC 2008-12-04)

Аудио
Идентификатор : 1
Формат : AC-3
Формат/Информация : Audio Coding 3
Расширение режима : CM (complete main)
Параметр Endianness формата : Big
Идентификатор кодека : 2000
Продолжительность : 1 ч. 43 м.
Вид битрейта : Постоянный
Битрейт : 384 Кбит/сек
Каналы : 6 каналов
Расположение каналов : Front: L C R, Side: L R, LFE
Частота : 48,0 КГц
Частота кадров : 31,250 кадров/сек (1536 spf)
Метод сжатия : С потерями
Размер потока : 284 Мбайт (14%)
Выравнивание : Разделение по промежуткам
Продолжительность промежутка : 40 мс. (1,00 видеокадр)
Время предзагрузки промежутка : 500 мс.

pb.wtf



Скачать Срочно выйду замуж через торрент http://pic.kartinco.top/images/11/5jpqb.jpg Скачать фильм Срочно выйду замуж через торрент бесплантно в хорошем качестве Описание: Женя — редактор-трудоголик, Стас — светский фотограф. Она амбициозна, а у него по жизни — ни задачи, ни проблемы. Женя хочет и ... 8.8 10 19
Торрент: Зарегистрирован [2016-10-04 12:50] · скачан: 180 раз
Статус: √ проверено
Размер: 2.04 GB
Как cкачать? Как скачать Срочно выйду замуж через торрент | qTorrent

% Раздел Тема Автор DL S | L
Наши фильмы (HD, WEB-DL 720p, 1080p) [ 3.61 GB ] Срочно выйду замуж [2015 WEB DL 1080p] $-DRON-$ Скачать
1 | 0
R.G. Resident & PiratVoice - Фильмы, Видео [ 1.46 GB ] Срочно выйду замуж [2015 WEB-DLRip-AVC Оригинальный R.G.Resident schultz Скачать
1 | 0
Наши новые фильмы 2015 [ 1.46 GB ] Срочно выйду замуж [2015 WEB-DLRip ] Яйцеслав Скачать
1 | 0

28-11-2019 20:33  

Отключить всю рекламу на сайте

31-01-2016 11:32 Срочно выйду замуж Скачать торрент  

хрень собачаяpb.wtf





Последний раз редактировалось: kpuctaluk (2016-10-04 14:38), всего редактировалось 1 раз

31-01-2016 19:36 Срочно выйду замуж Скачать торрент  

kpuctaluk писал(а):

осилил мин 15 и срочно вышел.

осилил Ваш комментарий и даже не заходил. Глянул актерский состав, всё подтвердилось.pb.wtf



04-10-2016 13:45 Срочно выйду замуж Скачать торрент  

Непонятно, для кого делают такие фильмы??? Нежели это действительно кто-то смотрит добровольно????pb.wtf



    Дорогой пользователь! Огромная просьба, поблагодарите релизера, оцените раздачу и оставьте свои комментарий, если Вы скачали Срочно выйду замуж через торрент бесплатно! Внесите свою лепту в развитие PiratBit!
    Комментировать посты могут только пользователи прошедшие не сложную регистрацию
    Показать сообщения:    

    Срочно выйду замуж через торрент
    Скачать бесплатно Срочно выйду замуж
    Срочно выйду замуж скачать торрент
    Срочно выйду замуж смотреть онлайн
    Cкачать фильм Срочно выйду замуж бесплатно
    Срочно выйду замуж скачать торрент в хорошем качестве
    Срочно выйду замуж смотреть онлайн бесплатно в хорошем качестве


    Вы не можете начинать темы
    Вы не можете отвечать на сообщения
    Вы не можете редактировать свои сообщения
    Вы не можете удалять свои сообщения
    Вы не можете голосовать в опросах
    Вы не можете прикреплять файлы к сообщениям
    Вы можете скачивать файлы