Ссылка на приватное зеркало всего за 1$. Внимание количество ограничено!!!

iTunes

iTunes

iTunes

1

iTunes

iTunes

iTunes

iTunes

iTunes

30
pack

$ от Little Big

ВАЖНО

!!Акция!!

Alien_RageХит недели

RePack

Resident Evil 21

ИГРА 18+

pack

RePack

jed

!!Акция!!

Alien_Rage

RePack

fifa19

RePack

Assassins Creed: Odyssey

RePack

NEED FOR SPEED™ PAYBACK

4 сезон

9 сезон

Бесстыжие 9 сезон

Все сериалы

все сериалы на PB.wtf

RePack

FAR CRY 5
  

Крутые виражи / Cool Runnings (Джон Тёртелтауб) [1993 г., комедия, семейный, спорт, WEB-DLRip 720p] DVO, 2xAVO pb.wtf

Крутые виражи через торрент pb.wtf

Размер: 3.27 GB | Добавлен: 3 года 9 мес. назад | Торрент скачан:82 раза
Скачать  

04-10-2016 16:41 Крутые виражи Скачать торрент  

Крутые виражи / Cool Runnings
Год выпуска: 1993
Страна: США
Жанр: комедия, семейный, спорт
Продолжительность: 01:38:10
Перевод: Профессиональный (двухголосый), авторский
Субтитры: Русские, английские

Режиссер: Джон Тёртелтауб

Бюджет: $14 000 000
Премьера в мире: 1 октября 1993

rating

В ролях: Джон Кэнди, Леон, Даг И. Даг, Роули Д. Льюис, Мэлик Йоба, Рэймонд Джей Бэрри, Питер Аутербридж, Пол Койер, Лэрри Гилмен, Чарльз Хайатт

Описание: Четверо спортсменов из Ямайки мечтают не много не мало — об участии в Олимпиаде. Причем им не важно в каком виде спорта выступать. А почему бы не бобслей!? Чего только не сделаешь на пути к заветной мечте. Пусть даже этот путь ледяной, а мчаться приходится в непонятном снаряде.

Качество: WEB-DLRip 720p
Формат: MKV
Видео кодек: x264
Аудио кодек: AC3
Видео: MPEG-4 AVC, 4000 Кбит/с, 1280x688, 23.976 кадр/с
Аудио#1: AC3, 2 ch, 192 Кбит/с, 48 kHz | Профессиональный двухголосый (Видеосервис)
Аудио#2: AC3, 2 ch, 192 Кбит/с, 48 kHz | Aвторский (Вартан Дохалов)
Аудио#3: AC3, 2 ch, 192 Кбит/с, 48 kHz | Aвторский (Антон Пронин)
Аудио#4: AC3, 2 ch, 192 Кбит/с, 48 kHz | Английский
Релиз от: Koenig
Общее
Уникальный идентификатор : 189061034914453684052174758739801599034 (0x8E3BD4B2506F268B96B77A936814EC3A)
Полное имя : Cool.Runnings.1993.WEB-DLRip.720p.mkv
Формат : Matroska
Версия формата : Version 4 / Version 2
Размер файла : 3,27 Гбайт
Продолжительность : 1 ч. 38 м.
Общий поток : 4769 Кбит/сек
Название фильма : Cool Runnings - by Koenig
Дата кодирования : UTC 2016-10-04 10:13:51
Программа кодирования : mkvmerge v9.2.0 ('Photograph') 32bit
Библиотека кодирования : libebml v1.3.3 + libmatroska v1.4.4
Обложка : Yes
Attachments : cover.jpg

Видео
Идентификатор : 1
Формат : AVC
Формат/Информация : Advanced Video Codec
Профиль формата : High@L4.1
Параметр CABAC формата : Да
Параметр ReFrames формата : 9 кадров
Идентификатор кодека : V_MPEG4/ISO/AVC
Продолжительность : 1 ч. 38 м.
Битрейт : 3999 Кбит/сек
Ширина : 1280 пикселей
Высота : 688 пикселей
Соотношение сторон : 1,85:1
Режим частоты кадров : Постоянный
Частота кадров : 23,976 (24000/1001) кадра/сек
Цветовое пространство : YUV
Субдискретизация насыщенности : 4:2:0
Битовая глубина : 8 бит
Тип развёртки : Прогрессивная
Бит/(Пиксели*Кадры) : 0.189
Размер потока : 2,74 Гбайт (84%)
Библиотека кодирования : x264 core 148 r2692 64f4e24
Настройки программы : cabac=1 / ref=9 / deblock=1:-3:-3 / analyse=0x3:0x133 / me=umh / subme=10 / psy=1 / psy_rd=1.05:0.05 / mixed_ref=1 / me_range=32 / chroma_me=1 / trellis=2 / 8x8dct=1 / cqm=0 / deadzone=21,11 / fast_pskip=0 / chroma_qp_offset=-3 / threads=3 / lookahead_threads=1 / sliced_threads=0 / nr=0 / decimate=1 / interlaced=0 / bluray_compat=0 / constrained_intra=0 / bframes=11 / b_pyramid=2 / b_adapt=2 / b_bias=0 / direct=3 / weightb=1 / open_gop=0 / weightp=2 / keyint=240 / keyint_min=23 / scenecut=40 / intra_refresh=0 / rc_lookahead=40 / rc=2pass / mbtree=1 / bitrate=3999 / ratetol=1.0 / qcomp=0.60 / qpmin=10 / qpmax=51 / qpstep=4 / cplxblur=20.0 / qblur=0.5 / vbv_maxrate=50000 / vbv_bufsize=62500 / nal_hrd=none / filler=0 / ip_ratio=1.40 / aq=1:1.00
Default : Да
Forced : Нет

Аудио #1
Идентификатор : 2
Формат : AC-3
Формат/Информация : Audio Coding 3
Расширение режима : CM (complete main)
Параметр Endianness формата : Big
Идентификатор кодека : A_AC3
Продолжительность : 1 ч. 38 м.
Вид битрейта : Постоянный
Битрейт : 192 Кбит/сек
Каналы : 2 канала
Расположение каналов : Front: L R
Частота : 48,0 КГц
Частота кадров : 31,250 кадров/сек (1536 spf)
Метод сжатия : С потерями
Размер потока : 135 Мбайт (4%)
Заголовок : DVO -Видеосервис
Язык : Russian
Default : Да
Forced : Нет

Аудио #2
Идентификатор : 3
Формат : AC-3
Формат/Информация : Audio Coding 3
Расширение режима : CM (complete main)
Параметр Endianness формата : Big
Идентификатор кодека : A_AC3
Продолжительность : 1 ч. 38 м.
Вид битрейта : Постоянный
Битрейт : 192 Кбит/сек
Каналы : 2 канала
Расположение каналов : Front: L R
Частота : 48,0 КГц
Частота кадров : 31,250 кадров/сек (1536 spf)
Метод сжатия : С потерями
Размер потока : 135 Мбайт (4%)
Заголовок : AVO - Вартан Дохалов
Язык : Russian
Default : Нет
Forced : Нет

Аудио #3
Идентификатор : 4
Формат : AC-3
Формат/Информация : Audio Coding 3
Расширение режима : CM (complete main)
Параметр Endianness формата : Big
Идентификатор кодека : A_AC3
Продолжительность : 1 ч. 38 м.
Вид битрейта : Постоянный
Битрейт : 192 Кбит/сек
Каналы : 2 канала
Расположение каналов : Front: L R
Частота : 48,0 КГц
Частота кадров : 31,250 кадров/сек (1536 spf)
Метод сжатия : С потерями
Размер потока : 135 Мбайт (4%)
Заголовок : AVO - Антон Пронин
Язык : Russian
Default : Нет
Forced : Нет

Аудио #4
Идентификатор : 5
Формат : AC-3
Формат/Информация : Audio Coding 3
Расширение режима : CM (complete main)
Параметр Endianness формата : Big
Идентификатор кодека : A_AC3
Продолжительность : 1 ч. 38 м.
Вид битрейта : Постоянный
Битрейт : 192 Кбит/сек
Каналы : 2 канала
Расположение каналов : Front: L R
Частота : 48,0 КГц
Частота кадров : 31,250 кадров/сек (1536 spf)
Метод сжатия : С потерями
Размер потока : 135 Мбайт (4%)
Заголовок : Original
Язык : English
Default : Нет
Forced : Нет

Текст #1
Идентификатор : 6
Формат : UTF-8
Идентификатор кодека : S_TEXT/UTF8
Идентификатор кодека/Информация : UTF-8 Plain Text
Продолжительность : 1 ч. 32 м.
Битрейт : 103 бит/сек
Count of elements : 1123
Размер потока : 70,5 Кбайт (0%)
Заголовок : Rus
Язык : Russian
Default : Да
Forced : Нет

Текст #2
Идентификатор : 7
Формат : UTF-8
Идентификатор кодека : S_TEXT/UTF8
Идентификатор кодека/Информация : UTF-8 Plain Text
Продолжительность : 1 ч. 37 м.
Битрейт : 75 бит/сек
Count of elements : 1331
Размер потока : 54,3 Кбайт (0%)
Язык : English
Default : Нет
Forced : Нет

Меню
00:00:00.000 : en:Program Start
00:00:15.349 : en:Opening Credits
00:04:56.097 : en:Sanka's Pushcart Derby
00:07:44.933 : en:100 Meter Finals
00:14:40.883 : en:Convincing Irving Blitzer
00:18:29.111 : en:First Jamaican Bobsled Team
00:26:23.885 : en:Training Begins
00:30:27.161 : en:Send Us to the Olympics!
00:40:30.565 : en:Running on Ice
00:45:06.841 : en:First Run
00:53:41.055 : en:Irv's Past Revealed
00:56:56.218 : en:Pride and Power.
01:06:28.224 : en:Qualifying Run
01:09:58.567 : en:Irv Faces the Alliance
01:14:57.365 : en:Junior Takes a Stand
01:19:31.974 : en:A Dismal Start
01:23:07.689 : en:Bobsled Jamaican Style
01:25:23.825 : en:Irv Explains Himself
01:28:07.323 : en:Jamaican Heroes
01:34:55.899 : en:End Credits
01:38:07.959 : en:End Credits 2

pb.wtf



Скачать Крутые виражи через торрент http://pic1.kartinco.top/images/10/jtul6.jpg Скачать фильм Крутые виражи через торрент бесплантно в хорошем качестве Описание: Четверо спортсменов из Ямайки мечтают не много не мало — об участии в Олимпиаде. Причем им не важно в каком виде спорта ... 8.2 10 5
Info! Золотая раздача, скачанное не засчитывается.
Торрент: Зарегистрирован [2016-10-04 16:41] · скачан: 82 раз
Статус: √ проверено
Размер: 3.27 GB
Как cкачать? Как скачать Крутые виражи через торрент | qTorrent

28-11-2019 20:33  

Отключить всю рекламу на сайте

    Дорогой пользователь! Огромная просьба, поблагодарите релизера, оцените раздачу и оставьте свои комментарий, если Вы скачали Крутые виражи через торрент бесплатно! Внесите свою лепту в развитие PiratBit!
    Комментировать посты могут только пользователи прошедшие не сложную регистрацию
    Показать сообщения:    

    Крутые виражи через торрент
    Скачать бесплатно Крутые виражи
    Крутые виражи скачать торрент
    Крутые виражи смотреть онлайн
    Cкачать фильм Крутые виражи бесплатно
    Крутые виражи скачать торрент в хорошем качестве
    Крутые виражи смотреть онлайн бесплатно в хорошем качестве


    Вы не можете начинать темы
    Вы не можете отвечать на сообщения
    Вы не можете редактировать свои сообщения
    Вы не можете удалять свои сообщения
    Вы не можете голосовать в опросах
    Вы не можете прикреплять файлы к сообщениям
    Вы можете скачивать файлы