Ссылка на приватное зеркало нашего сайта всего за 1$. Внимание количество ограничено!!!

2 сезон

iTunes

1 сезон

1

2 сезон

2 сезон

iTunes

1 сезон

RePack

30

Новинка

ВАЖНО

ИГРА 18+

pack

RePack

MK11
pack

Забери бонус

RePack

jed

!!Акция!!

Alien_Rage

RePack

fifa19

RePack

Assassins Creed: Odyssey

RePack

NEED FOR SPEED™ PAYBACK

4 сезон

9 сезон

Бесстыжие 9 сезон

Все сериалы

все сериалы на PB.wtf

RePack

FAR CRY 5
  

Несколько дней со мной / Quelques jours avec moi (Клод Соте) [1988 г., драма, мелодрама, комедия, HDRip] MVO pb.wtf

Несколько дней со мной через торрент pb.wtf

Размер: 2.18 GB | Добавлен: 4 года 1 мес. назад | Торрент скачан:2 раза
Скачать  

04-10-2016 18:29 Несколько дней со мной Скачать торрент  

Несколько дней со мной / Quelques jours avec moi
Год выпуска: 1988
Страна: Франция
Жанр: драма, мелодрама, комедия
Продолжительность: 02:08:34
Перевод: Профессиональный (многоголосый)

Режиссер: Клод Соте

Премьера в мире: 24 августа 1988

rating

В ролях: Даниель Отой, Сандрин Боннэр, Жан-Пьер Марьель, Доминик Лаванан, Даниэль Даррьё, Венсан Линдон, Тереза Лиотар, Жерар Исмаэль, Таня Лопер, Филипп Лоденбаш

Описание: Лимож, президент сети супермаркетов, страстно влюбляется в молодую девушку, которая работает помощницей менеджера в одном из отделов. Он просит её жить вместе с ним и, взамен, предлагает всё, о чём она когда-нибудь мечтала.

Качество: HDRip
Формат: AVI
Видео кодек: XviD
Аудио кодек: AC3
Видео: XviD, 2029 Кбит/с, 720x432, 24 кадр/с
Аудио#1: AC3, 2 ch, 192 Кбит/с, 48 kHz | Русский
Аудио#2: АС3, 2 ch, 192 Кбит/с, 48 kHz | Французский
Релиз от: Koenig
Общее
Полное имя : Quelques.Jours.Avec Moi.1988.HDRip.avi
Формат : AVI
Формат/Информация : Audio Video Interleave
Профиль формата : OpenDML
Размер файла : 2,18 Гбайт
Продолжительность : 2 ч. 8 м.
Общий поток : 2431 Кбит/сек
Программа кодирования : VirtualDubMod 1.5.10.2 (build 2540/release)
Библиотека кодирования : VirtualDubMod build 2540/release

Видео
Идентификатор : 0
Формат : MPEG-4 Visual
Профиль формата : Advanced Simple@L5
Параметр BVOP формата : 1
Параметр QPel формата : Нет
Параметр GMC формата : Без точки перехода
Параметр матрицы формата : Выборочная
Идентификатор кодека : XVID
Идентификатор кодека/Подсказка : XviD
Продолжительность : 2 ч. 8 м.
Битрейт : 2029 Кбит/сек
Ширина : 720 пикселей
Высота : 432 пикселя
Соотношение сторон : 5:3
Частота кадров : 24,000 кадра/сек
Цветовое пространство : YUV
Субдискретизация насыщенности : 4:2:0
Битовая глубина : 8 бит
Тип развёртки : Прогрессивная
Метод сжатия : С потерями
Бит/(Пиксели*Кадры) : 0.272
Размер потока : 1,82 Гбайт (83%)
Библиотека кодирования : XviD 73

Аудио #1
Идентификатор : 1
Формат : AC-3
Формат/Информация : Audio Coding 3
Расширение режима : CM (complete main)
Параметр Endianness формата : Big
Идентификатор кодека : 2000
Продолжительность : 2 ч. 8 м.
Вид битрейта : Постоянный
Битрейт : 192 Кбит/сек
Каналы : 2 канала
Расположение каналов : Front: L R
Частота : 48,0 КГц
Частота кадров : 31,250 кадров/сек (1536 spf)
Метод сжатия : С потерями
Размер потока : 177 Мбайт (8%)
Выравнивание : Разделение по промежуткам
Продолжительность промежутка : 42 мс. (1,00 видеокадр)
Время предзагрузки промежутка : 500 мс.

Аудио #2
Идентификатор : 2
Формат : AC-3
Формат/Информация : Audio Coding 3
Расширение режима : CM (complete main)
Параметр Endianness формата : Big
Идентификатор кодека : 2000
Продолжительность : 2 ч. 8 м.
Вид битрейта : Постоянный
Битрейт : 192 Кбит/сек
Каналы : 2 канала
Расположение каналов : Front: L R
Частота : 48,0 КГц
Частота кадров : 31,250 кадров/сек (1536 spf)
Метод сжатия : С потерями
Размер потока : 177 Мбайт (8%)
Выравнивание : Разделение по промежуткам
Продолжительность промежутка : 42 мс. (1,00 видеокадр)
Время предзагрузки промежутка : 500 мс.

pb.wtf



Скачать Несколько дней со мной через торрент http://pic1.kartinco.top/images/10/199c6.jpg Скачать фильм Несколько дней со мной через торрент бесплантно в хорошем качестве Описание: Лимож, президент сети супермаркетов, страстно влюбляется в молодую девушку, которая работает помощницей менеджера в одном из ... 10 10 1
Info! Золотая раздача, скачанное не засчитывается.
Торрент: Зарегистрирован [2016-10-04 18:29] · скачан: 2 раз
Статус: √ проверено
Размер: 2.18 GB
Как cкачать? Как скачать Несколько дней со мной через торрент | qTorrent

% Раздел Тема Автор DL S | L
Фильмы до 2000 г. [ 3.37 GB ] Несколько дней со мной / Quelques jours avec moi [1988 BDRip-AVC] MVO msltel Скачать
1 | 0
Фильмы [HD 720p, 1080p] (Хороший звук DUB, MVO) [ 15.64 GB ] Несколько дней со мной / Quelques jours avec moi [1988 BDRip 1080p] MVO msltel Скачать
1 | 0
Фильмы [HD 720p, 1080p] (Хороший звук DUB, MVO) [ 6.39 GB ] Несколько дней со мной / Quelques jours avec moi [1988 BDRip 720p] MVO msltel Скачать
1 | 0

28-11-2019 20:33  

Отключить всю рекламу на сайте

    Дорогой пользователь! Огромная просьба, поблагодарите релизера, оцените раздачу и оставьте свои комментарий, если Вы скачали Несколько дней со мной через торрент бесплатно! Внесите свою лепту в развитие PiratBit!
    Комментировать посты могут только пользователи прошедшие не сложную регистрацию
    Показать сообщения:    

    Несколько дней со мной через торрент
    Скачать бесплатно Несколько дней со мной
    Несколько дней со мной скачать торрент
    Несколько дней со мной смотреть онлайн
    Cкачать фильм Несколько дней со мной бесплатно
    Несколько дней со мной скачать торрент в хорошем качестве
    Несколько дней со мной смотреть онлайн бесплатно в хорошем качестве


    Вы не можете начинать темы
    Вы не можете отвечать на сообщения
    Вы не можете редактировать свои сообщения
    Вы не можете удалять свои сообщения
    Вы не можете голосовать в опросах
    Вы не можете прикреплять файлы к сообщениям
    Вы можете скачивать файлы