Ссылка на приватное зеркало всего за 1$. Внимание количество ограничено!!!

iTunes

1+1

iTunes

мы

WEB-DL

1

iTunes

Чернобыль

iTunes

Ральф против интернета

Лицензия

ПШазам

Лицензия

Оно 2

Лицензия

30
pack

Вам бонус

ВАЖНО

!!Акция!!

Alien_RageХит недели

RePack

Resident Evil 21

ИГРА 18+

pack

RePack

jed

!!Акция!!

Alien_Rage

RePack

fifa19

RePack

Assassins Creed: Odyssey

RePack

NEED FOR SPEED™ PAYBACK

3 сезон

9 сезон

Бесстыжие 9 сезон

Все сериалы

все сериалы на PB.wtf

RePack

FAR CRY 5
Ребята, катастрофически не хватает 1900р. для оплаты серверов за Октябрь (всвязи с блокировками трафик упал в 3 раза), 1-2р., выручайте.
  

Золотая речка (Вениамин Дорман ) [1977, приключения, SATRip-AVC] pb.wtf

Золотая речка через торрент pb.wtf

Размер: 1.22 GB | Добавлен: 3 года 2 мес. назад | Торрент скачан:12 раз
Скачать  

04-10-2016 18:44 Золотая речка Скачать торрент  

Золотая речка

Год выпуска: 1977
Страна: СССР
Жанр: приключения

Продолжительность: 01:31:52
Перевод: Не требуется [Русский]
Режиссер: Вениамин Дорман
В ролях: Александр Абдулов (Борис Рогов), Николай Горлов (Усатый), Александр Кайдановский (Зимин), Юрий Каюров (Волжин Владимир Петрович), Андрей Харыбин (Тёмка), Георгий Мартиросян (Тихон), Ольга Матешко (Марфа), Николай Олялин (Силантий), Сергей Сазонтьев (Федякин), Виктор Сергачев (Ефим Суббота), Евгения Симонова (Тася), Виктор Смирнов (Губенко)
Описание:
Продолжение фильма «Пропавшая экспедиция». На этот раз события разворачиваются в 1923 году. Герои фильма вновь попадают в те места, где было найдено богатое месторождение золота. Однако добраться до него оказывается не проще, чем несколько лет назад...

Качество: SATRip-AVC
Формат: MKV
Видео: AVC, 704x368 (1.913), 1669 kbps, 25 fps, 0,258 bpp
Аудио: русский / MPEG-1 Audio layer 2 / 2.0 / 48 kHz / 192 kbps /

General
Unique ID \Золотая речка.1977.mkv
Format : Matroska
Format version : Version 4 / Version 2
File size : 1.22 GiB
Duration : 1 h 31 min
Overall bit rate : 1 900 kb/s
Movie name : (Release for Topmost)
Encoded date : UTC 2016-04-06 17:13:37
Writing application : mkvmerge v6.2.0 ('Promised Land') built on Apr 28 2013 12:22:01
Writing library : libebml v1.3.0 + libmatroska v1.4.0
Cover : Yes
Attachments : cover_land.jpg

Video
ID : 1
Format : AVC
Format/Info : Advanced Video Codec
Format profile : High@L5
Format settings, CABAC : Yes
Format settings, ReFrames : 5 frames
Codec ID : V_MPEG4/ISO/AVC
Duration : 1 h 31 min
Bit rate : 1 670 kb/s
Width : 704 pixels
Height : 368 pixels
Display aspect ratio : 1.913
Frame rate mode : Constant
Frame rate : 25.000 FPS
Color space : YUV
Chroma subsampling : 4:2:0
Bit depth : 8 bits
Scan type : Progressive
Bits/(Pixel*Frame) : 0.258
Stream size : 1.07 GiB (88%)
Title : Золотая речка.1977 (Release for Topmost)
Writing library : x264 core 146 r2538bm 121396c
Encoding settings : cabac=1 / ref=5 / deblock=1:0:0 / analyse=0x3:0x113 / me=umh / subme=8 / psy=1 / psy_rd=1.00:0.00 / mixed_ref=1 / me_range=16 / chroma_me=1 / trellis=1 / 8x8dct=1 / cqm=0 / deadzone=21,11 / fast_pskip=1 / chroma_qp_offset=-2 / threads=3 / lookahead_threads=1 / sliced_threads=0 / nr=0 / decimate=1 / interlaced=0 / bluray_compat=0 / constrained_intra=0 / bframes=3 / b_pyramid=2 / b_adapt=2 / b_bias=0 / direct=3 / weightb=1 / open_gop=0 / weightp=2 / keyint=250 / keyint_min=25 / scenecut=40 / intra_refresh=0 / rc_lookahead=50 / rc=crf / mbtree=1 / crf=22.1 / qcomp=0.60 / qpmin=0 / qpmax=69 / qpstep=4 / ip_ratio=1.40 / aq=1:1.00
Language : Russian
Default : Yes
Forced : No

Audio
ID : 2
Format : MPEG Audio
Format version : Version 1
Format profile : Layer 2
Codec ID : A_MPEG/L2
Codec ID/Hint : MP2
Duration : 1 h 31 min
Bit rate mode : Constant
Bit rate : 192 kb/s
Channel(s) : 2 channels
Sampling rate : 48.0 kHz
Compression mode : Lossy
Delay relative to video : 2 s 505 ms
Stream size : 126 MiB (10%)
Title : MP2, 2 ch, 192 kbps
Language : Russian
Default : Yes
Forced : No
Скриншоты:
pb.wtf



Скачать Золотая речка через торрент http://i2.imageban.ru/out/2016/10/04/e0009c1151b9a6a26d9981156e27ceaf.jpg Скачать фильм Золотая речка через торрент бесплантно в хорошем качестве Описание: Продолжение фильма «Пропавшая экспедиция». На этот раз события разворачиваются в 1923 году. Герои фильма вновь попадают в те ... 10 10 4
Info! Серебряная раздача, засчитывается только 50% скачанного.
Торрент: Зарегистрирован [2016-10-04 18:44] · скачан: 12 раз
Статус: √ проверено
Размер: 1.22 GB
Как cкачать? Как скачать Золотая речка через торрент | qTorrent

28-11-2019 20:33  

Отключить всю рекламу на сайте

    Дорогой пользователь! Огромная просьба, поблагодарите релизера, оцените раздачу и оставьте свои комментарий, если Вы скачали Золотая речка через торрент бесплатно! Внесите свою лепту в развитие PiratBit!
    Комментировать посты могут только пользователи прошедшие не сложную регистрацию
    Показать сообщения:    

    Золотая речка через торрент
    Скачать бесплатно Золотая речка
    Золотая речка скачать торрент
    Золотая речка смотреть онлайн
    Cкачать фильм Золотая речка бесплатно
    Золотая речка скачать торрент в хорошем качестве
    Золотая речка смотреть онлайн бесплатно в хорошем качестве


    Вы не можете начинать темы
    Вы не можете отвечать на сообщения
    Вы не можете редактировать свои сообщения
    Вы не можете удалять свои сообщения
    Вы не можете голосовать в опросах
    Вы не можете прикреплять файлы к сообщениям
    Вы можете скачивать файлы