Наша группа ВК в очередной раз забанена мы уходим в Телеграм, присоединяйтесь!!!

Лицензия

30

iTunes

мы

iTunes

1

1 сезон

Чернобыль

iTunes

1+1

iTunes

Закатать в асфальт

8 сезон

Игра престолов

1 сезон

Ральф против интернета

ИГРА 18+

pack

ВАЖНО

!!Акция!!

Alien_RageХит недели

RePack

Resident Evil 21
pack

RePack

Metro:Exodus

!!Акция!!

Alien_Rage

RePack

fifa19

RePack

Assassins Creed: Odyssey

RePack

NEED FOR SPEED™ PAYBACK

3 сезон

9 сезон

Бесстыжие 9 сезон

Все сериалы

все сериалы на PB.wtf

RePack

FAR CRY 5
Ребята, катастрофически не хватает 2730р. для оплаты серверов за АПРЕЛЬ (всвязи с блокировками трафик упал в 3 раза), 1-2р., выручайте.
  

Рептилия / The Reptile (Джон Джиллинг ) [1966, ужасы, DVDRip] Любительский [одноголосый] pb.wtf

Рептилия через торрент pb.wtf

Размер: 1.46 GB | Добавлен: 2 года 7 мес. назад | Торрент скачан:1 раз
Скачать  

04-10-2016 18:45 Рептилия Скачать торрент  

Рептилия / The Reptile

Год выпуска: 1966
Страна: Великобритания
Жанр: ужасы

Продолжительность: 01:30:07
Перевод: Любительский [одноголосый] - fiendover
Режиссер: Джон Джиллинг
В ролях: Ноэл Уиллмен (Dr. Franklyn), Дженнифер Дэниэл (Valerie Spalding), Рэй Баррет (Harry George Spalding), Жаклин Пирс (Anna Franklyn), Майкл Риппер (Tom Bailey), Джон Лори (Mad Peter), Марн Мэйтленд (The Malay), Дэвид Барон (Charles Edward Spalding), Чарльз Ллойд Пэк (The Vicar), Харольд Голдблатт (The Solicitor), Джордж Вудбридж (Old Garnsey)
Описание:
Чарльз Спелдинг таинственным образом умирает. Его брат Гарри и его супруга Валерия после случившейся трагедии селятся в доме брата в деревне Корниш. Гарри считает, что его молодой и здоровый брат не мог умереть от сердечного приступа. Он начинает собственное расследование, чтобы узнать истинные причины смерти Чарльза...
Рейтинг:

Качество: DVDRip
Формат: AVI
Видео: XviD, 720x400 (16:9), 1858 kbps, 23,976 fps, 0,269 bpp
Аудио: AC3 / 2.0 / 48 kHz / 448 kbps /

Код:

General
Complete name                            : D:\торренты\The Reptile.1966.DVDRip.Xvid.AC3.avi
Format                                   : AVI
Format/Info                              : Audio Video Interleave
File size                                : 1.46 GiB
Duration                                 : 1 h 30 min
Overall bit rate                         : 2 315 kb/s
Writing library                          : VirtualDub build 33790/release

Video
ID                                       : 0
Format                                   : MPEG-4 Visual
Format profile                           : Advanced Simple@L5
Format settings, BVOP                    : 1
Format settings, QPel                    : No
Format settings, GMC                     : No warppoints
Format settings, Matrix                  : Custom
Codec ID                                 : XVID
Codec ID/Hint                            : XviD
Duration                                 : 1 h 30 min
Bit rate                                 : 1 858 kb/s
Width                                    : 720 pixels
Height                                   : 400 pixels
Display aspect ratio                     : 16:9
Frame rate                               : 23.976 (24000/1001) FPS
Color space                              : YUV
Chroma subsampling                       : 4:2:0
Bit depth                                : 8 bits
Scan type                                : Progressive
Compression mode                         : Lossy
Bits/(Pixel*Frame)                       : 0.269
Stream size                              : 1.17 GiB (80%)
Writing library                          : XviD 64

Audio
ID                                       : 1
Format                                   : AC-3
Format/Info                              : Audio Coding 3
Mode extension                           : CM (complete main)
Format settings, Endianness              : Big
Codec ID                                 : 2000
Duration                                 : 1 h 30 min
Bit rate mode                            : Constant
Bit rate                                 : 448 kb/s
Channel(s)                               : 2 channels
Channel positions                        : Front: L R
Sampling rate                            : 48.0 kHz
Frame rate                               : 31.250 FPS (1536 spf)
Compression mode                         : Lossy
Stream size                              : 289 MiB (19%)
Alignment                                : Aligned on interleaves
Interleave, duration                     : 42  ms (1.00 video frame)
Interleave, preload duration             : 512  ms

pb.wtf



Скачать Рептилия через торрент http://i82.fastpic.ru/big/2016/1004/1c/49f8895d39ea055fb0215461c709f01c.png Скачать фильм Рептилия через торрент бесплантно в хорошем качестве Описание: Чарльз Спелдинг таинственным образом умирает. Его брат Гарри и его супруга Валерия после случившейся трагедии селятся в доме ... 10 10 4
Торрент: Зарегистрирован [2016-10-04 18:45] · скачан: 1 раз
Статус: √ проверено
Размер: 1.46 GB
Как cкачать? Как скачать Рептилия через торрент | qTorrent

% Раздел Тема Автор DL S | L
National Geographic [ 1.42 GB ] Nat Geo Wild: Могущественные рептилии / Planet of the Reptiles [2017 ДокументальныйHDTV 1080p ] Armstrong Скачать
1 | 0


>> Регистрируемся здесь <<






Отзывы и комментарии о схеме читаем и пишем здесь: ---> Отзывы и комментарии о схеме

Новые благодарочки в телеграм довольных пользователей:
скриншот   скриншот   скриншот   скриншот   скриншот
    Дорогой пользователь! Огромная просьба, поблагодарите релизера, оцените раздачу и оставьте свои комментарий, если Вы скачали Рептилия через торрент бесплатно! Внесите свою лепту в развитие PiratBit!
    Комментировать посты могут только пользователи прошедшие не сложную регистрацию
    Показать сообщения:    

    Рептилия через торрент
    Скачать бесплатно Рептилия
    Рептилия скачать торрент
    Рептилия смотреть онлайн
    Cкачать фильм Рептилия бесплатно
    Рептилия скачать торрент в хорошем качестве
    Рептилия смотреть онлайн бесплатно в хорошем качестве


    Вы не можете начинать темы
    Вы не можете отвечать на сообщения
    Вы не можете редактировать свои сообщения
    Вы не можете удалять свои сообщения
    Вы не можете голосовать в опросах
    Вы не можете прикреплять файлы к сообщениям
    Вы можете скачивать файлы