новый адрес
Мега распродажа FORZA HORIZON 4 ULTIMATE+ВСЕ DLC+ОНЛАЙН всего за 499р. 349 руб. (супер цена). Внимание количество ограничено!!!

iTunes

1+1

iTunes

мы

iTunes

1

iTunes

Чернобыль

iTunes

Ральф против интернета

Лицензия

ПШазам

Лицензия

Игра престолов

Лицензия

30
pack

ВАЖНО

!!Акция!!

Alien_RageХит недели

RePack

Resident Evil 21

ИГРА 18+

pack

RePack

Metro:Exodus

!!Акция!!

Alien_Rage

RePack

fifa19

RePack

Assassins Creed: Odyssey

RePack

NEED FOR SPEED™ PAYBACK

3 сезон

9 сезон

Бесстыжие 9 сезон

Все сериалы

все сериалы на PB.wtf

RePack

FAR CRY 5
Ребята, катастрофически не хватает 1900р. для оплаты серверов за Октябрь (всвязи с блокировками трафик упал в 3 раза), 1-2р., выручайте.
  

Пропавшая экспедиция (2 серии) (Вениамин Дорман) [1975, драма, детектив, приключения, SATRip-AVC] pb.wtf

Пропавшая экспедиция через торрент pb.wtf

Размер: 1.5 GB | Добавлен: 3 года 1 мес. назад | Торрент скачан:8 раз
Скачать  

04-10-2016 19:00 Пропавшая экспедиция Скачать торрент  

Пропавшая экспедиция (2 серии)

Год выпуска: 1975
Страна: СССР
Жанр: драма, детектив, приключения

Продолжительность: 01:04:23
Перевод: Не требуется [Русский]
Режиссер: Вениамин Дорман
В ролях: Николай Гринько (Смелков), Вахтанг Кикабидзе (Арсен Георгиевич Кабахидзе), Евгения Симонова (Тася), Александр Кайдановский (Зимин), Борис Сморчков (Куманин), Николай Олялин (Силантий), Виктор Сергачев (Ефим Суббота), Сергей Шевкуненко (Митя), Вадим Захарченко (Харитон), Лев Прыгунов, Николай Горлов (Усатый), Юрий Каюров (Волжин)
Описание:
1918 год. Из Петрограда в Сибирь отправляется первая в СССР экспедиция, разыскивающая золотые месторождения. Сначала в ее составе всего два человека, красный комиссар и профессор. Вскоре у них появляются спутники из местных жителей. Кто-то действительно хочет помочь, а кое-кто просто желает за чужой счет поживиться... Ради наживы злоумышленники не пожалеют никого!

Качество: SATRip-AVC
Формат: MKV
Видео: AVC, 704x368 (1.913), 1459 kbps, 25 fps, 0,225 bpp
Аудио: русский / MPEG-1 Audio layer 2 / 2.0 / 48 kHz / 192 kbps /

General
Unique ID \Пропавшая экспедиция 2 серии\Пропавшая экспедиция 1 серия.mkv
Format : Matroska
Format version : Version 4 / Version 2
File size : 776 MiB
Duration : 1 h 4 min
Overall bit rate : 1 685 kb/s
Movie name : (Release for Topmost)
Encoded date : UTC 2016-04-06 09:58:42
Writing application : mkvmerge v6.2.0 ('Promised Land') built on Apr 28 2013 12:22:01
Writing library : libebml v1.3.0 + libmatroska v1.4.0
Cover : Yes
Attachments : cover_land.jpg

Video
ID : 1
Format : AVC
Format/Info : Advanced Video Codec
Format profile : High@L5
Format settings, CABAC : Yes
Format settings, ReFrames : 5 frames
Codec ID : V_MPEG4/ISO/AVC
Duration : 1 h 4 min
Bit rate : 1 459 kb/s
Width : 704 pixels
Height : 368 pixels
Display aspect ratio : 1.913
Frame rate mode : Constant
Frame rate : 25.000 FPS
Color space : YUV
Chroma subsampling : 4:2:0
Bit depth : 8 bits
Scan type : Progressive
Bits/(Pixel*Frame) : 0.225
Stream size : 672 MiB (87%)
Title : Пропавшая экспедиция 1 серия (Release for Topmost)
Writing library : x264 core 146 r2538bm 121396c
Encoding settings : cabac=1 / ref=5 / deblock=1:0:0 / analyse=0x3:0x113 / me=umh / subme=8 / psy=1 / psy_rd=1.00:0.00 / mixed_ref=1 / me_range=16 / chroma_me=1 / trellis=1 / 8x8dct=1 / cqm=0 / deadzone=21,11 / fast_pskip=1 / chroma_qp_offset=-2 / threads=3 / lookahead_threads=1 / sliced_threads=0 / nr=0 / decimate=1 / interlaced=0 / bluray_compat=0 / constrained_intra=0 / bframes=3 / b_pyramid=2 / b_adapt=2 / b_bias=0 / direct=3 / weightb=1 / open_gop=0 / weightp=2 / keyint=250 / keyint_min=25 / scenecut=40 / intra_refresh=0 / rc_lookahead=50 / rc=crf / mbtree=1 / crf=17.6 / qcomp=0.60 / qpmin=0 / qpmax=69 / qpstep=4 / ip_ratio=1.40 / aq=1:1.00
Language : Russian
Default : Yes
Forced : No

Audio
ID : 2
Format : MPEG Audio
Format version : Version 1
Format profile : Layer 2
Codec ID : A_MPEG/L2
Codec ID/Hint : MP2
Duration : 1 h 4 min
Bit rate mode : Constant
Bit rate : 192 kb/s
Channel(s) : 2 channels
Sampling rate : 48.0 kHz
Compression mode : Lossy
Delay relative to video : 2 s 500 ms
Stream size : 88.4 MiB (11%)
Title : MPEG2, 2 ch, 192 kbps
Language : Russian
Default : Yes
Forced : No
Скриншоты:
pb.wtf



Скачать Пропавшая экспедиция через торрент http://i3.imageban.ru/out/2016/10/04/8265abb4295fff815cdcbf1b99f446cc.jpg Скачать фильм Пропавшая экспедиция через торрент бесплантно в хорошем качестве Описание: 1918 год. Из Петрограда в Сибирь отправляется первая в СССР экспедиция, разыскивающая золотые месторождения. Сначала в ее составе ... 10 10 5
Info! Золотая раздача, скачанное не засчитывается.
Торрент: Зарегистрирован [2016-10-04 19:00] · скачан: 8 раз
Статус: √ проверено
Размер: 1.5 GB
Как cкачать? Как скачать Пропавшая экспедиция через торрент | qTorrent

% Раздел Тема Автор DL S | L
S.T.A.L.K.E.R. [ 2.72 GB ] S.T.A.L.K.E.R.: Shadow of Chernobyl - Пропавшая экспедиция [Repack RUS] от SeregA-Lus SeregA_Lus Скачать
1 | 0


>> Регистрируемся здесь <<






Отзывы и комментарии о схеме читаем и пишем здесь: ---> Отзывы и комментарии о схеме

Новые благодарочки в телеграм довольных пользователей:
скриншот   скриншот   скриншот   скриншот   скриншот
    Дорогой пользователь! Огромная просьба, поблагодарите релизера, оцените раздачу и оставьте свои комментарий, если Вы скачали Пропавшая экспедиция через торрент бесплатно! Внесите свою лепту в развитие PiratBit!
    Комментировать посты могут только пользователи прошедшие не сложную регистрацию
    Показать сообщения:    

    Пропавшая экспедиция через торрент
    Скачать бесплатно Пропавшая экспедиция
    Пропавшая экспедиция скачать торрент
    Пропавшая экспедиция смотреть онлайн
    Cкачать фильм Пропавшая экспедиция бесплатно
    Пропавшая экспедиция скачать торрент в хорошем качестве
    Пропавшая экспедиция смотреть онлайн бесплатно в хорошем качестве


    Вы не можете начинать темы
    Вы не можете отвечать на сообщения
    Вы не можете редактировать свои сообщения
    Вы не можете удалять свои сообщения
    Вы не можете голосовать в опросах
    Вы не можете прикреплять файлы к сообщениям
    Вы можете скачивать файлы