новый адрес
Мега распродажа FORZA HORIZON 4 ULTIMATE+ВСЕ DLC+ОНЛАЙН всего за 499р. 349 руб. (супер цена). Внимание количество ограничено!!!

iTunes

1+1

iTunes

мы

iTunes

1

iTunes

Чернобыль

iTunes

Ральф против интернета

Лицензия

ПШазам

Лицензия

Игра престолов

Лицензия

30
pack

ВАЖНО

!!Акция!!

Alien_RageХит недели

RePack

Resident Evil 21

ИГРА 18+

pack

RePack

Metro:Exodus

!!Акция!!

Alien_Rage

RePack

fifa19

RePack

Assassins Creed: Odyssey

RePack

NEED FOR SPEED™ PAYBACK

3 сезон

9 сезон

Бесстыжие 9 сезон

Все сериалы

все сериалы на PB.wtf

RePack

FAR CRY 5
Ребята, катастрофически не хватает 1900р. для оплаты серверов за Октябрь (всвязи с блокировками трафик упал в 3 раза), 1-2р., выручайте.
  

Родня (Никита Михалков) [1981, драма, комедия, HDTVRip-AVC] pb.wtf

Родня через торрент pb.wtf

Раздают: 1 [ 0 KB/s ]
Размер: 1.55 GB | Добавлен: 3 года 1 мес. назад | Торрент скачан:47 раз
Скачать  

04-10-2016 19:15 Родня Скачать торрент  

Родня

Год выпуска: 1981
Страна: СССР
Жанр: драма, комедия

Продолжительность: 01:32:26
Перевод: Не требуется [Русский]
Субтитры: русский, английский
Режиссер: Никита Михалков
В ролях: Нонна Мордюкова (Мария Коновалова), Светлана Крючкова (Нина), Андрей Петров (Ляпин), Иван Бортник (Вовчик), Юрий Богатырев (Стасик), Фёдор Стуков (Иришка), Всеволод Ларионов (генерал), Никита Михалков (официант), Александр Адабашьян (официант), Павел Лебешев (официант), Лариса Кузнецова (Лара), Олег Меньшиков (Кирилл)
Описание:
Фильм в иронической манере повествует о сложных взаимоотношениях близких друг другу людей. Главная героиня в простоте душевной пытается «склеить» распавшуюся семью любимой дочери. Действуя из самых добрых побуждений, она не в состоянии понять, почему ее вмешательство вызывает столь бурный протест...

Качество: HDTVRip-AVC
Формат: MKV
Видео: AVC, 800x600 (4:3), 2153 kbps, 25 fps, 0,179 bpp
Аудио: русский / AC3 / 2.0 / 48 kHz / 192 kbps /
Навигация по главам: есть

General
Unique ID \Родня.1981.mkv
Format : Matroska
Format version : Version 4 / Version 2
File size : 1.55 GiB
Duration : 1 h 32 min
Overall bit rate : 2 393 kb/s
Movie name : Release for Topmost
Encoded date : UTC 2016-03-27 10:55:47
Writing application : mkvmerge v6.2.0 ('Promised Land') built on Apr 28 2013 12:22:01
Writing library : libebml v1.3.0 + libmatroska v1.4.0
Cover : Yes
Attachments : cover_land.jpg

Video
ID : 1
Format : AVC
Format/Info : Advanced Video Codec
Format profile : Main@L5.1
Format settings, CABAC : Yes
Format settings, ReFrames : 1 frame
Codec ID : V_MPEG4/ISO/AVC
Duration : 1 h 32 min
Bit rate : 2 154 kb/s
Width : 800 pixels
Height : 600 pixels
Display aspect ratio : 4:3
Frame rate mode : Constant
Frame rate : 25.000 FPS
Color space : YUV
Chroma subsampling : 4:2:0
Bit depth : 8 bits
Scan type : Progressive
Bits/(Pixel*Frame) : 0.179
Stream size : 1.39 GiB (90%)
Title : Родня.1981 (Release for Topmost)
Language : Russian
Default : Yes
Forced : No

Audio
ID : 2
Format : AC-3
Format/Info : Audio Coding 3
Mode extension : CM (complete main)
Format settings, Endianness : Big
Codec ID : A_AC3
Duration : 1 h 32 min
Bit rate mode : Constant
Bit rate : 192 kb/s
Channel(s) : 2 channels
Channel positions : Front: L R
Sampling rate : 48.0 kHz
Frame rate : 31.250 FPS (1536 spf)
Compression mode : Lossy
Stream size : 127 MiB (8%)
Title : AC-3, 2.0ch, 192 Kbps
Language : Russian
Default : Yes
Forced : No

Text #1
ID : 3
Format : UTF-8
Codec ID : S_TEXT/UTF8
Codec ID/Info : UTF-8 Plain Text
Language : Russian
Default : No
Forced : No

Text #2
ID : 4
Format : UTF-8
Codec ID : S_TEXT/UTF8
Codec ID/Info : UTF-8 Plain Text
Language : English
Default : No
Forced : No

Menu
00:00:00.000 : ru:Спальный вагон
00:10:46.680 : ru:Мать и дочь
00:17:07.960 : ru:Внучка
00:25:50.960 : ru:Зять
00:29:10.760 : ru:Гражданин с усами
00:33:59.240 : ru:Ссора
00:43:29.960 : ru:Ночлег
00:49:14.200 : ru:Бывший муж
01:04:39.160 : ru:В ресторане
01:18:15.360 : ru:Ожидание
01:23:42.080 : ru:Проводы в армию
01:28:44.360 : ru:Финал. Титры
Скриншоты:
pb.wtf



Скачать Родня через торрент http://i1.imageban.ru/out/2016/10/04/b1fb853bdae2cf93873461523e62152e.jpg Скачать фильм Родня через торрент бесплантно в хорошем качестве Описание: Фильм в иронической манере повествует о сложных взаимоотношениях близких друг другу людей. Главная героиня в простоте душевной ... 10 10 6
Info! Серебряная раздача, засчитывается только 50% скачанного.
Торрент: Зарегистрирован [2016-10-04 19:15] · скачан: 47 раз
Статус: √ проверено
Размер: 1.55 GB
Как cкачать? Как скачать Родня через торрент | qTorrent

% Раздел Тема Автор DL S | L
Зарубежные сериалы [ 26.5 GB ] Ривердэйл / Riverdale / Сезон: 3 / Серии: 1-22 из 22 [2018 WEB-DL 1080p] MVO [Пифагор] bober100 Скачать
1 | 0
Зарубежные сериалы [ 68.36 GB ] Ривердэйл / Riverdale / Сезон: 2 / Серии: 1-22 из 22 [2017 Мело BDRip 1080p] MVO [TVShows] bober100 Скачать
1 | 0
Зарубежные сериалы [ 40.22 GB ] Ривердэйл / Riverdale / Сезон: 1 / Серии: 1-13 из 13 [2017 Мело BDRip 1080p] MVO [TVShows] bober100 Скачать
1 | 0
Зарубежные Мультфильмы (BDRip 1080p, 720p, Blu-ray, BD-Remux) [ 5.76 GB ] Человек-паук: Через вселенные / Spider-Man: Into the Spider-Verse [2018 мультфильм BDRip 720p] [Локализованная версия] DUB [] - ExKin Enigma2010 Скачать
19 | 0
Кино СССР [ 1.09 GB ] Родная кровь [1963 СССР DVDRip-AVC от AVP Studio] AVP Studio Скачать
2 | 0
Кино СССР [ 1.09 GB ] Родная кровь [1963 СССР DVDRip от AVP Studio] AVP Studio Скачать
1 | 0
# Фильмы (мультфильмы) cо спонсором показа (Новинки AVI/MKV) [ 3.11 GB ] Родная душа / Qi yue yu an sheng [2016 BDRip 720p] MVO ["Синема УС"] bober100 Скачать
1 | 0


>> Регистрируемся здесь <<






Отзывы и комментарии о схеме читаем и пишем здесь: ---> Отзывы и комментарии о схеме

Новые благодарочки в телеграм довольных пользователей:
скриншот   скриншот   скриншот   скриншот   скриншот
    Дорогой пользователь! Огромная просьба, поблагодарите релизера, оцените раздачу и оставьте свои комментарий, если Вы скачали Родня через торрент бесплатно! Внесите свою лепту в развитие PiratBit!
    Комментировать посты могут только пользователи прошедшие не сложную регистрацию
    Показать сообщения:    

    Родня через торрент
    Скачать бесплатно Родня
    Родня скачать торрент
    Родня смотреть онлайн
    Cкачать фильм Родня бесплатно
    Родня скачать торрент в хорошем качестве
    Родня смотреть онлайн бесплатно в хорошем качестве


    Вы не можете начинать темы
    Вы не можете отвечать на сообщения
    Вы не можете редактировать свои сообщения
    Вы не можете удалять свои сообщения
    Вы не можете голосовать в опросах
    Вы не можете прикреплять файлы к сообщениям
    Вы можете скачивать файлы