новый адрес пиратбит piratbit
Мега распродажа FORZA HORIZON 4 ULTIMATE+ВСЕ DLC+ОНЛАЙН всего за 499р. 349 руб. (супер цена). Внимание количество ограничено!!!

iTunes

1+1

iTunes

мы

iTunes

1

iTunes

Чернобыль

iTunes

Ральф против интернета

Лицензия

ПШазам

Лицензия

Игра престолов

Лицензия

30
pack

ВАЖНО

!!Акция!!

Alien_RageХит недели

RePack

Resident Evil 21

ИГРА 18+

pack

RePack

Metro:Exodus

!!Акция!!

Alien_Rage

RePack

fifa19

RePack

Assassins Creed: Odyssey

RePack

NEED FOR SPEED™ PAYBACK

3 сезон

9 сезон

Бесстыжие 9 сезон

Все сериалы

все сериалы на PB.wtf

RePack

FAR CRY 5
Ребята, катастрофически не хватает 1900р. для оплаты серверов за Октябрь (всвязи с блокировками трафик упал в 3 раза), 1-2р., выручайте.
  

Девушка без адреса (Эльдар Рязанов ) [1957, мелодрама, комедия, DVDRip-AVC] pb.wtf

Девушка без адреса через торрент pb.wtf

Размер: 1.29 GB | Добавлен: 3 года 1 мес. назад | Торрент скачан:6 раз
Скачать  

04-10-2016 19:49 Девушка без адреса Скачать торрент  

Девушка без адреса

Год выпуска: 1957
Страна: СССР
Жанр: мелодрама, комедия
Продолжительность: 01:25:08
Перевод: Не требуется [Русский]
Режиссер: Эльдар Рязанов
В ролях: Светлана Карпинская (Катя Иванова), Николай Рыбников (Пашка Гусаров), Эраст Гарин (Дедушка), Василий Топорков, Юрий Белов (Митя), Светлана Тарасова (Оля), Зоя Фёдорова (Комаринская), Сергей Филиппов (Комаринский), Рина Зеленая (Елизавета Тимофеевна), Михаил Гаркави, Павел Тарасов, Светлана Харитонова (Клава)
Описание:
Забавные приключения молодого строителя Пашки Гусарова начались с того момента, как в поезде он встретил и полюбил Катю. Счастье делает человека беспечным, и на вокзале его ждет множество необычных событий. Однако именно здесь влюбленные встречаются вновь, и больше уже не расстаются.

Качество: DVDRip-AVC
Формат: MKV
Видео: AVC, 720x544 (4:3), 2000 kbps, 25 fps, 0,204 bpp
Аудио: русский / AC3 / 2.0 / 48 kHz / 160 kbps /

General
Unique ID \Девушка без адреса.mkv
Format : Matroska
Format version : Version 4 / Version 2
File size : 1.29 GiB
Duration : 1 h 25 min
Overall bit rate : 2 166 kb/s
Movie name : Девушка без адреса (remastered by smithland)
Encoded date : UTC 2016-03-08 10:25:05
Writing application : mkvmerge v8.9.0 ('Father Daughter') 64bit
Writing library : libebml v1.3.3 + libmatroska v1.4.4
Cover : Yes
Attachments : cover.jpg

Video
ID : 1
Format : AVC
Format/Info : Advanced Video Codec
Format profile : High@L4
Format settings, CABAC : Yes
Format settings, ReFrames : 10 frames
Codec ID : V_MPEG4/ISO/AVC
Duration : 1 h 25 min
Bit rate : 2 000 kb/s
Width : 720 pixels
Height : 544 pixels
Display aspect ratio : 4:3
Frame rate mode : Constant
Frame rate : 25.000 FPS
Color space : YUV
Chroma subsampling : 4:2:0
Bit depth : 8 bits
Scan type : Progressive
Bits/(Pixel*Frame) : 0.204
Stream size : 1.19 GiB (93%)
Writing library : x264 core 146 r2538 121396c
Encoding settings : cabac=1 / ref=10 / deblock=1:-2:-1 / analyse=0x3:0x133 / me=umh / subme=11 / psy=1 / psy_rd=1.35:0.37 / mixed_ref=1 / me_range=30 / chroma_me=1 / trellis=2 / 8x8dct=1 / cqm=0 / deadzone=21,11 / fast_pskip=1 / chroma_qp_offset=-4 / threads=12 / lookahead_threads=1 / sliced_threads=0 / nr=0 / decimate=0 / interlaced=0 / bluray_compat=0 / constrained_intra=0 / bframes=6 / b_pyramid=2 / b_adapt=1 / b_bias=0 / direct=1 / weightb=1 / open_gop=1 / weightp=2 / keyint=250 / keyint_min=25 / scenecut=40 / intra_refresh=0 / rc_lookahead=40 / rc=abr / mbtree=1 / bitrate=2000 / ratetol=1.0 / qcomp=0.60 / qpmin=0 / qpmax=69 / qpstep=4 / ip_ratio=1.40 / aq=1:1.10
Language : Russian
Default : Yes
Forced : Yes
Color range : Limited
Color primaries : Generic film

Audio
ID : 2
Format : AC-3
Format/Info : Audio Coding 3
Mode extension : CM (complete main)
Format settings, Endianness : Big
Codec ID : A_AC3
Duration : 1 h 25 min
Bit rate mode : Constant
Bit rate : 160 kb/s
Channel(s) : 2 channels
Channel positions : Front: L R
Sampling rate : 48.0 kHz
Frame rate : 31.250 FPS (1536 spf)
Compression mode : Lossy
Stream size : 97.4 MiB (7%)
Language : Russian
Default : Yes
Forced : Yes
Скриншоты:
pb.wtf



Скачать Девушка без адреса через торрент http://i1.imageban.ru/out/2016/10/04/7abb059150f96b92b1263ad78e0de7ec.jpg Скачать фильм Девушка без адреса через торрент бесплантно в хорошем качестве Описание: Забавные приключения молодого строителя Пашки Гусарова начались с того момента, как в поезде он встретил и полюбил Катю. Счастье ... 10 10 3
Торрент: Зарегистрирован [2016-10-04 19:49] · скачан: 6 раз
Статус: √ проверено
Размер: 1.29 GB
Как cкачать? Как скачать Девушка без адреса через торрент | qTorrent

% Раздел Тема Автор DL S | L
Кино СССР [ 1.37 GB ] Девушка без адреса [1957 СССР DVDRip] Notturno Скачать
1 | 0


>> Регистрируемся здесь <<






Отзывы и комментарии о схеме читаем и пишем здесь: ---> Отзывы и комментарии о схеме

Новые благодарочки в телеграм довольных пользователей:
скриншот   скриншот   скриншот   скриншот   скриншот
    Дорогой пользователь! Огромная просьба, поблагодарите релизера, оцените раздачу и оставьте свои комментарий, если Вы скачали Девушка без адреса через торрент бесплатно! Внесите свою лепту в развитие PiratBit!
    Комментировать посты могут только пользователи прошедшие не сложную регистрацию
    Показать сообщения:    

    Девушка без адреса через торрент
    Скачать бесплатно Девушка без адреса
    Девушка без адреса скачать торрент
    Девушка без адреса смотреть онлайн
    Cкачать фильм Девушка без адреса бесплатно
    Девушка без адреса скачать торрент в хорошем качестве
    Девушка без адреса смотреть онлайн бесплатно в хорошем качестве


    Вы не можете начинать темы
    Вы не можете отвечать на сообщения
    Вы не можете редактировать свои сообщения
    Вы не можете удалять свои сообщения
    Вы не можете голосовать в опросах
    Вы не можете прикреплять файлы к сообщениям
    Вы можете скачивать файлы