Ссылка на приватное зеркало нашего сайта всего за 1$. Внимание количество ограничено!!!

2 сезон

iTunes

1 сезон

1

iTunes

iTunes

iTunes

1 сезон

RePack

30

ИГРА 18+

pack

ВАЖНО

!!Акция!!

Alien_RageХит недели

RePack

MK11
pack

Забери бонус

RePack

jed

!!Акция!!

Alien_Rage

RePack

fifa19

RePack

Assassins Creed: Odyssey

RePack

NEED FOR SPEED™ PAYBACK

4 сезон

9 сезон

Бесстыжие 9 сезон

Все сериалы

все сериалы на PB.wtf

RePack

FAR CRY 5
  

Земля мёртвых (Режиссёрская версия) / Land of the Dead (DirCut) (Джордж А. Ромеро) [2005, ужасы, фантастика, боевик, триллер, BDRip 720p by msltel] DUB, MVO, DVO, AVO pb.wtf

Земля мёртвых через торрент pb.wtf

Размер: 4.65 GB | Добавлен: 4 года назад | Торрент скачан:162 раза
Скачать  

05-10-2016 12:20 Земля мёртвых Скачать торрент  

Название: Земля мёртвых
Оригинальное название: Land of the Dead
Год выпуска: 2005
Страна: Канада, Франция, США
Жанр: ужасы, фантастика, боевик, триллер
Продолжительность: 01:36:52
Перевод: дублированный, профессиональный многоголосый, профессиональный двухголосый, авторский

Режиссёр: Джордж А. Ромеро

В ролях: Саймон Бэйкер, Джон Легуизамо, Дэннис Хоппер, Азия Ардженто, Роберт Джой, Юджин Кларк, Джоэнн Боланд, Тони Наппо, Дженнифер Бэкстер, Бойд Бэнкс, Ясмин Гельо, Максвелл МакКейб-Локос, Тони Манч, Шон Робертс, Педро Мигель Арсе, Саша Ройз, Криста Бриджес, Алан Ван Спрэнг, Фил Фондакаро, Брюс МакФи, Эрл Пастко, Джонатан Уитэйкер, Джонатан Уолкер, Питер Аутербридж, Лара Эмерси, Майкл Белизаро, Джин Макк, Мэтт Бирман, Девон Бостик, Джейсон Гатро, Кристофер Расселл, Крис Нельсон, Дебра Фелстэд, Тина Ромеро, Колм Мэгнер, Скотт Виквэа, Рон Пэйн, Ричард Кларкин, Дэррин Браун, Элдридж Хиндман, Тед Лудзик

Описание: Ожившие мертвецы-зомби заполонили весь мир, и последние люди пытаются спастись, будучи заложниками ситуации в городе, окружённом неприступной стеной. Однако скоро и они окажутся под угрозой со стороны новых, более совершенных и более опасных существ…



Качество: BDRip 720p Сравнение с исходником
Формат: MKV
Видео: MPEG-4 AVC, 4700 Kбит/с, 1280x544, 23,976 кадра/с
Аудио 1: русский, AC3, 448 kbps, 6 ch, 48 kHz [дублированный, с добавлением MVO]
Аудио 2: русский, AC3, 384 kbps, 6 ch, 48 kHz [профессиональный многоголосый]
Аудио 3: русский, AC3, 448 kbps, 6 ch, 48 kHz [профессиональный двухголосый, Tycoon]
Аудио 4: русский, AC3, 448 kbps, 6 ch, 48 kHz [авторский, Юрий Немахов]
Аудио 5: английский, AC3, 448 kbps, 6 ch, 48 kHz [оригинал]
Субтитры 1: русские
Субтитры 2: английские (для слабослышащих)
Общее
Уникальный идентификатор : 215647740919942318815295590813193609512 (0xA23C3E81C68A7FC0BAA77AE603622128)
Полное имя : D:\Video\Земля мёртвых.2005.DirCut.BDRip.720p.mkv
Формат : Matroska
Версия формата : Version 4 / Version 2
Размер файла : 4,65 Гбайт
Продолжительность : 1 ч. 36 м.
Общий поток : 6878 Кбит/сек
Дата кодирования : UTC 2016-10-04 11:06:28
Программа кодирования : mkvmerge v8.2.0 ('World of Adventure') 64bit
Библиотека кодирования : libebml v1.3.1 + libmatroska v1.4.2

Видео
Идентификатор : 1
Формат : AVC
Формат/Информация : Advanced Video Codec
Профиль формата : High@L4.1
Параметр CABAC формата : Да
Параметр ReFrames формата : 9 кадров
Идентификатор кодека : V_MPEG4/ISO/AVC
Продолжительность : 1 ч. 36 м.
Битрейт : 4700 Кбит/сек
Ширина : 1280 пикселей
Высота : 544 пикселя
Соотношение сторон : 2,35:1
Режим частоты кадров : Постоянный
Частота кадров : 23,976 (24000/1001) кадра/сек
Цветовое пространство : YUV
Субдискретизация насыщенности : 4:2:0
Битовая глубина : 8 бит
Тип развёртки : Прогрессивная
Бит/(Пиксели*Кадры) : 0.281
Размер потока : 3,18 Гбайт (68%)
Библиотека кодирования : x264 core 146 r2538 121396c
Настройки программы : cabac=1 / ref=9 / deblock=1:-1:-1 / analyse=0x3:0x113 / me=umh / subme=10 / psy=1 / psy_rd=1.00:0.15 / mixed_ref=1 / me_range=32 / chroma_me=1 / trellis=2 / 8x8dct=1 / cqm=0 / deadzone=21,11 / fast_pskip=1 / chroma_qp_offset=-3 / threads=6 / lookahead_threads=1 / sliced_threads=0 / nr=0 / decimate=1 / interlaced=0 / bluray_compat=0 / constrained_intra=0 / bframes=8 / b_pyramid=2 / b_adapt=2 / b_bias=0 / direct=1 / weightb=1 / open_gop=0 / weightp=2 / keyint=230 / keyint_min=23 / scenecut=40 / intra_refresh=0 / rc_lookahead=40 / rc=crf / mbtree=0 / crf=18.7 / qcomp=0.60 / qpmin=0 / qpmax=69 / qpstep=4 / vbv_maxrate=40000 / vbv_bufsize=50000 / crf_max=0.0 / nal_hrd=none / filler=0 / ip_ratio=1.40 / pb_ratio=1.30 / aq=1:1.00
Язык : English
Default : Да
Forced : Нет

Аудио #1
Идентификатор : 2
Формат : AC-3
Формат/Информация : Audio Coding 3
Расширение режима : CM (complete main)
Параметр Endianness формата : Big
Идентификатор кодека : A_AC3
Продолжительность : 1 ч. 36 м.
Вид битрейта : Постоянный
Битрейт : 448 Кбит/сек
Каналы : 6 каналов
Расположение каналов : Front: L C R, Side: L R, LFE
Частота : 48,0 КГц
Частота кадров : 31,250 кадров/сек (1536 spf)
Метод сжатия : С потерями
Размер потока : 310 Мбайт (7%)
Заголовок : DUB (с добавлением MVO)
Язык : Russian
Default : Да
Forced : Нет

Аудио #2
Идентификатор : 3
Формат : AC-3
Формат/Информация : Audio Coding 3
Расширение режима : CM (complete main)
Параметр Endianness формата : Big
Идентификатор кодека : A_AC3
Продолжительность : 1 ч. 36 м.
Вид битрейта : Постоянный
Битрейт : 384 Кбит/сек
Каналы : 6 каналов
Расположение каналов : Front: L C R, Side: L R, LFE
Частота : 48,0 КГц
Частота кадров : 31,250 кадров/сек (1536 spf)
Метод сжатия : С потерями
Размер потока : 266 Мбайт (6%)
Заголовок : MVO
Язык : Russian
Default : Нет
Forced : Нет

Аудио #3
Идентификатор : 4
Формат : AC-3
Формат/Информация : Audio Coding 3
Расширение режима : CM (complete main)
Параметр Endianness формата : Big
Идентификатор кодека : A_AC3
Продолжительность : 1 ч. 36 м.
Вид битрейта : Постоянный
Битрейт : 448 Кбит/сек
Каналы : 6 каналов
Расположение каналов : Front: L C R, Side: L R, LFE
Частота : 48,0 КГц
Частота кадров : 31,250 кадров/сек (1536 spf)
Метод сжатия : С потерями
Размер потока : 310 Мбайт (7%)
Заголовок : DVO (Tycoon)
Язык : Russian
Default : Нет
Forced : Нет

Аудио #4
Идентификатор : 5
Формат : AC-3
Формат/Информация : Audio Coding 3
Расширение режима : CM (complete main)
Параметр Endianness формата : Big
Идентификатор кодека : A_AC3
Продолжительность : 1 ч. 36 м.
Вид битрейта : Постоянный
Битрейт : 448 Кбит/сек
Каналы : 6 каналов
Расположение каналов : Front: L C R, Side: L R, LFE
Частота : 48,0 КГц
Частота кадров : 31,250 кадров/сек (1536 spf)
Метод сжатия : С потерями
Размер потока : 310 Мбайт (7%)
Заголовок : AVO (Юрий Немахов)
Язык : Russian
Default : Нет
Forced : Нет

Аудио #5
Идентификатор : 6
Формат : AC-3
Формат/Информация : Audio Coding 3
Расширение режима : CM (complete main)
Параметр Endianness формата : Big
Идентификатор кодека : A_AC3
Продолжительность : 1 ч. 36 м.
Вид битрейта : Постоянный
Битрейт : 448 Кбит/сек
Каналы : 6 каналов
Расположение каналов : Front: L C R, Side: L R, LFE
Частота : 48,0 КГц
Частота кадров : 31,250 кадров/сек (1536 spf)
Метод сжатия : С потерями
Размер потока : 310 Мбайт (7%)
Заголовок : original
Язык : English
Default : Нет
Forced : Нет

Текст #1
Идентификатор : 7
Формат : UTF-8
Идентификатор кодека : S_TEXT/UTF8
Идентификатор кодека/Информация : UTF-8 Plain Text
Продолжительность : 1 ч. 31 м.
Битрейт : 61 бит/сек
Count of elements : 903
Размер потока : 41,2 Кбайт (0%)
Заголовок : русские
Язык : Russian
Default : Нет
Forced : Нет

Текст #2
Идентификатор : 8
Формат : UTF-8
Идентификатор кодека : S_TEXT/UTF8
Идентификатор кодека/Информация : UTF-8 Plain Text
Продолжительность : 1 ч. 31 м.
Битрейт : 51 бит/сек
Count of elements : 1196
Размер потока : 34,6 Кбайт (0%)
Заголовок : английские (для слабослышащих)
Язык : English
Default : Нет
Forced : Нет
pb.wtf



Скачать Земля мёртвых через торрент http://s009.radikal.ru/i309/1610/71/86143171051f.jpg Скачать фильм Земля мёртвых через торрент бесплантно в хорошем качестве Описание: Ожившие мертвецы-зомби заполонили весь мир, и последние люди пытаются спастись, будучи заложниками ситуации в городе, окружённом ... 8.7 10 7
Info! Золотая раздача, скачанное не засчитывается.
Торрент: Зарегистрирован [2016-10-05 12:20] · скачан: 162 раз
Статус: √ проверено
Размер: 4.65 GB
Как cкачать? Как скачать Земля мёртвых через торрент | qTorrent

% Раздел Тема Автор DL S | L
Фильмы [HD 720p, 1080p] (Хороший звук DUB, MVO) [ 10.9 GB ] Земля мёртвых / Land of the Dead [2005 BDRip 1080p by msltel] DUB MVO DVO AVO msltel Скачать
1 | 0

28-11-2019 20:33  

Отключить всю рекламу на сайте

06-10-2016 16:24 Земля мёртвых Скачать торрент  

Шикарный фильмец! Подбор и игра актеров, сюжет, все на высшем уровне. Благодарствую... pb.wtf



09-10-2016 18:36 Земля мёртвых Скачать торрент  

хороший старый фильм. На эту тематику один из лучших. С тех пор не много чего внятного сняли в таком стиле, даже включая сериалы типа волкин деда.pb.wtf



    Дорогой пользователь! Огромная просьба, поблагодарите релизера, оцените раздачу и оставьте свои комментарий, если Вы скачали Земля мёртвых через торрент бесплатно! Внесите свою лепту в развитие PiratBit!
    Комментировать посты могут только пользователи прошедшие не сложную регистрацию
    Показать сообщения:    

    Земля мёртвых через торрент
    Скачать бесплатно Земля мёртвых
    Земля мёртвых скачать торрент
    Земля мёртвых смотреть онлайн
    Cкачать фильм Земля мёртвых бесплатно
    Земля мёртвых скачать торрент в хорошем качестве
    Земля мёртвых смотреть онлайн бесплатно в хорошем качестве


    Вы не можете начинать темы
    Вы не можете отвечать на сообщения
    Вы не можете редактировать свои сообщения
    Вы не можете удалять свои сообщения
    Вы не можете голосовать в опросах
    Вы не можете прикреплять файлы к сообщениям
    Вы можете скачивать файлы