новый адрес
Ссылка на приватное зеркало всего за 1$. Внимание количество ограничено!!!

iTunes

1+1

iTunes

мы

iTunes

1

iTunes

Чернобыль

iTunes

Ральф против интернета

Лицензия

ПШазам

Лицензия

Оно 2

Лицензия

30
pack

Вам бонус

ВАЖНО

!!Акция!!

Alien_RageХит недели

RePack

Resident Evil 21

ИГРА 18+

pack

RePack

jed

!!Акция!!

Alien_Rage

RePack

fifa19

RePack

Assassins Creed: Odyssey

RePack

NEED FOR SPEED™ PAYBACK

3 сезон

9 сезон

Бесстыжие 9 сезон

Все сериалы

все сериалы на PB.wtf

RePack

FAR CRY 5
Ребята, катастрофически не хватает 1900р. для оплаты серверов за Октябрь (всвязи с блокировками трафик упал в 3 раза), 1-2р., выручайте.
  

Фантазм 5 / Phantasm: Ravager (Дэвид Хартман) [2016, ужасы, фэнтези, WEB-DLRip] Любительский одноголосый [Xixidok] pb.wtf

Фантазм 5 через торрент pb.wtf

Размер: 1.19 GB | Добавлен: 3 года 1 мес. назад | Торрент скачан:242 раза
Скачать  

05-10-2016 15:35 Фантазм 5 Скачать торрент  

Фантазм 5 / Phantasm: Ravager

Год выпуска: 2016
Страна: США
Жанр: ужасы, фэнтези

Продолжительность: 01:25:28
Перевод: Любительский одноголосый [Xixidok]
Примечание: Присутствует голосовая реклама!
Режиссер: Дэвид Хартман
В ролях:

Рэджи Бэннистер (Reggie), А. Майкл Болдуин (Mike), Кэти Лестер (Lady in Lavender), Билл Торнбери (Jody), Энгус Скримм (The Tall Man), Дэниэл Швайгер (Thief), Дэниэл Робак (Demeter), Джей Олива (Hooded Dwarf), Глория Линн Генри (Rocky), Кин Окада (Nurse), Jonathan Sims (Steampunk Gravedigger)
Описание:
Реджи и Майк сомневаются, что все, что с ними происходило, было на самом деле, и все это просто игры разума. Но как это может происходить одновременно у всех в голове...
Рейтинг:

Качество: WEB-DLRip
Формат: AVI
Видео: XviD, 720x400 (16:9), 1594 kbps, 23,976 fps, 0,231 bpp
Аудио: AC3 / 5.1 / 48 kHz / 384 kbps /

General
Complete name : E:\Phantasm.Ravager.2016.WEB-DLRip.XviD.AC3.L1.avi
Format : AVI
Format/Info : Audio Video Interleave
File size : 1.19 GiB
Duration : 1 h 25 min
Overall bit rate : 1 988 kb/s
Movie name : Phantasm.Ravager.2016.WEB-DL.XviD.AC3-FGT
Writing application : VirtualDubMod 1.5.10.1 (build 2366/release)
Writing library : VirtualDubMod build 2366/release
Comment : Phantasm.Ravager.2016.WEB-DL.XviD.AC3-FGT

Video
ID : 0
Format : MPEG-4 Visual
Format profile : Simple@L5
Format settings, BVOP : No
Format settings, QPel : No
Format settings, GMC : No warppoints
Format settings, Matrix : Default (H.263)
Codec ID : XVID
Codec ID/Hint : XviD
Duration : 1 h 25 min
Bit rate : 1 595 kb/s
Width : 720 pixels
Height : 400 pixels
Display aspect ratio : 16:9
Frame rate : 23.976 FPS
Color space : YUV
Chroma subsampling : 4:2:0
Bit depth : 8 bits
Scan type : Progressive
Compression mode : Lossy
Bits/(Pixel*Frame) : 0.231
Stream size : 975 MiB (80%)
Writing library : Lavc57.16.101

Audio
ID : 1
Format : AC-3
Format/Info : Audio Coding 3
Mode extension : CM (complete main)
Format settings, Endianness : Big
Codec ID : 2000
Duration : 1 h 25 min
Bit rate mode : Constant
Bit rate : 384 kb/s
Channel(s) : 6 channels
Channel positions : Front: L C R, Side: L R, LFE
Sampling rate : 48.0 kHz
Frame rate : 31.250 FPS (1536 spf)
Compression mode : Lossy
Stream size : 235 MiB (19%)
Alignment : Split accross interleaves
Interleave, duration : 42 ms (1.00 video frame)
Interleave, preload duration : 512 ms
pb.wtf



Скачать Фантазм 5 через торрент http://i6.imageban.ru/out/2016/10/05/4607a486bf7245890250851fd5916983.jpg Скачать фильм Фантазм 5 через торрент бесплантно в хорошем качестве Описание: Реджи и Майк сомневаются, что все, что с ними происходило, было на самом деле, и все это просто игры разума. Но как это может ... 9.2 10 16
Info! Золотая раздача, скачанное не засчитывается.
Торрент: Зарегистрирован [2016-10-05 15:35] · скачан: 242 раз
Статус: T временная
Размер: 1.19 GB
Как cкачать? Как скачать Фантазм 5 через торрент | qTorrent

% Раздел Тема Автор DL S | L
T Релизы по Парсеру [Игры, Сериалы и Фильмы и другое...] [ 3.55 GB ] Фантазм 5 / Phantasm: Ravager [2016 WEB-DL 1080p] Любительский одноголосый [Xixidok] -Lexx- Скачать
1 | 0


>> Переходим по ссылке <<
Автоматически подгузится скрипт который настроит ваш браузер на выигрыш!!
После настройки браузера вероятность выигрыша увеличется в 4.1-4,6 раза.
В течение 6 секунд вам откроется настроенный интерфейс казино, с повышенной вероятностью выигрыша.






Отзывы и комментарии о схеме читаем и пишем здесь: ---> Отзывы и комментарии о схеме

Новые благодарочки в телеграм довольных пользователей:
скриншот   скриншот   скриншот   скриншот   скриншот

05-10-2016 19:14 Фантазм 5 Скачать торрент  

Такая хрень... я аж уснул.. В начале он палит из пистолета, как будто там магазин пуль на 30.. Короче бред.. Первые части намного круче.. Это уже не фильм детства, а ахинея!
За релиз спасибо!pb.wtf



05-10-2016 21:27 Фантазм 5 Скачать торрент  

sashka24kursk писал(а):

Такая хрень... я аж уснул.. В начале он палит из пистолета, как будто там магазин пуль на 30.. Короче бред.. Первые части намного круче.. Это уже не фильм детства, а ахинея!
За релиз спасибо!

Дык перед этой тоже было ещё тоpb.wtf



05-10-2016 21:58 Фантазм 5 Скачать торрент  

Да сюжет вообще никакой!полное ведро только время потратил на эту бредятину!предыдущие части получше были и по эфектней!pb.wtf



05-10-2016 23:12 Фантазм 5 Скачать торрент  

Норм. Фильм ничего вы в классике не понимаете .. сразу молодость вспомнил как все части по 20 раз пересматривал )) спс авторуpb.wtf



06-10-2016 12:49 Фантазм 5 Скачать торрент  

diablo2526 писал(а):

Норм. Фильм ничего вы в классике не понимаете .. сразу молодость вспомнил как все части по 20 раз пересматривал )) спс автору

Предыдущие части получше были,а это ведрише!pb.wtf



08-10-2016 17:29 Фантазм 5 Скачать торрент  

Фильм для тех, кому нравились старые части!
Тот реально врубит в эту часть!!! ФИЛЬМ БОМБОВЫЙ!!!
Парни вечно живы и всегда в бою!!!
ФАНТАЗМ ФОРЕВА!!!pb.wtf



10-10-2016 05:16 Фантазм 5 Скачать торрент  

Ни о чём..прощай,детство))))pb.wtf



    Дорогой пользователь! Огромная просьба, поблагодарите релизера, оцените раздачу и оставьте свои комментарий, если Вы скачали Фантазм 5 через торрент бесплатно! Внесите свою лепту в развитие PiratBit!
    Комментировать посты могут только пользователи прошедшие не сложную регистрацию
    Показать сообщения:    

    Фантазм 5 через торрент
    Скачать бесплатно Фантазм 5
    Фантазм 5 скачать торрент
    Фантазм 5 смотреть онлайн
    Cкачать фильм Фантазм 5 бесплатно
    Фантазм 5 скачать торрент в хорошем качестве
    Фантазм 5 смотреть онлайн бесплатно в хорошем качестве


    Вы не можете начинать темы
    Вы не можете отвечать на сообщения
    Вы не можете редактировать свои сообщения
    Вы не можете удалять свои сообщения
    Вы не можете голосовать в опросах
    Вы не можете прикреплять файлы к сообщениям
    Вы можете скачивать файлы