MEGA SALE -50% FORZA HORIZON 4 ULTIMATE+ВСЕ DLC+ОНЛАЙН всего за 599р. 299 руб. (супер цена). Внимание количество ограничено!!!

iTunes

1+1

iTunes

мы

iTunes

1

iTunes

Чернобыль

iTunes

Ральф против интернета

Лицензия

ПШазам

Лицензия

Игра престолов

Лицензия

30
pack

ВАЖНО

!!Акция!!

Alien_RageХит недели

RePack

Resident Evil 21

ИГРА 18+

pack

RePack

Metro:Exodus

!!Акция!!

Alien_Rage

RePack

fifa19

RePack

Assassins Creed: Odyssey

RePack

NEED FOR SPEED™ PAYBACK

3 сезон

9 сезон

Бесстыжие 9 сезон

Все сериалы

все сериалы на PB.wtf

RePack

FAR CRY 5
Ребята, катастрофически не хватает 7730р. для оплаты серверов за ИЮЛЬ (всвязи с блокировками трафик упал в 3 раза), 1-2р., выручайте.
  

Большие каникулы / Les grandes vacances (Жан Жиро) [1967 г., комедия, BDRip] 2xMVO, DVO pb.wtf

Большие каникулы через торрент pb.wtf

Размер: 1.45 GB | Добавлен: 2 года 10 мес. назад | Торрент скачан:33 раза
Скачать  

05-10-2016 18:28 Большие каникулы Скачать торрент  

Большие каникулы / Les grandes vacances
Год выпуска: 1967
Страна: Франция, Италия
Жанр: комедия
Продолжительность: 01:29:34
Перевод: Профессиональный (многоголосый), профессиональный (двухголосый)

Режиссер: Жан Жиро

Премьера в мире: 1 декабря 1967

rating

В ролях: Луи де Фюнес, Франсуа Лессиа, Оливье де Фюнес, Ферди Мэйн, Клод Жансак, Ги Гроссо, Морис Риш, Мартина Келли, Марио Давид, Жак Динам, Доминик Даврэй, Макс Монтаван, Жан Фаллу

Описание: Мсье Боскье, директор престижной частной школы-интерната, чувствует себя опозоренным, узнав, что его старший сын Филипп провалил экзамен по английскому языку. Боскье решает на время летних каникул отправить сына по языковому обмену в Великобританию, в одну английскую семью, чтобы он улучшил там свой английский. На время его отсутствия в семье Боскье поселится английская школьница Ширли Мак Фаррелл, которая, в свою очередь, будет совершенствоваться во французском.
Однако Филипп не так уж горит желанием ехать куда-то — у него с друзьями намечается летнее путешествие на яхте, о котором он давно мечтал. В Англию вместо себя он отправляет своего школьного друга Мишоне. Оказавшись там, Мишоне заболевает вскоре от непривычной английской еды. Мсье Боскье приезжает навестить своего больного якобы сына и, конечно, обман тут же раскрывается. В это же время его настоящий сын и эта самая их гостья, девчонка-англичанка, вместе весело проводят время где-то на яхте. Боскье тут же отправляется на их поиски — ведь отец Ширли, мистер Мак Фаррелл, того и гляди явится к ним домой, чтобы проведать дочку.

Качество: BDRip
Формат: AVI
Видео кодек: XviD
Аудио кодек: AC3
Видео: XviD, 1523 Кбит/с, 720x304, 24 кадр/с
Аудио#1: AC3, 2 ch, 192 Кбит/с, 48 kHz | Профессиональный многоголосый (Останкино)
Аудио#2: AC3, 2 ch, 192 Кбит/с, 48 kHz | Профессиональный многоголосый (Светла)
Аудио#3: AC3, 2 ch, 192 Кбит/с, 48 kHz | Профессиональный двухлосый
Аудио#4: AC3, 2 ch, 192 Кбит/с, 48 kHz | Французский
Релиз от: Koenig
Общее
Полное имя : Les.Grandes.Vacances.1967.BDRip.avi
Формат : AVI
Формат/Информация : Audio Video Interleave
Размер файла : 1,45 Гбайт
Продолжительность : 1 ч. 29 м.
Общий поток : 2314 Кбит/сек
Программа кодирования : VirtualDubMod 1.5.10.2 (build 2540/release)
Библиотека кодирования : VirtualDubMod build 2540/release

Видео
Идентификатор : 0
Формат : MPEG-4 Visual
Профиль формата : Advanced Simple@L5
Параметр BVOP формата : 1
Параметр QPel формата : Нет
Параметр GMC формата : Без точки перехода
Параметр матрицы формата : Выборочная
Идентификатор кодека : XVID
Идентификатор кодека/Подсказка : XviD
Продолжительность : 1 ч. 29 м.
Битрейт : 1523 Кбит/сек
Ширина : 720 пикселей
Высота : 304 пикселя
Соотношение сторон : 2,35:1
Частота кадров : 24,000 кадра/сек
Цветовое пространство : YUV
Субдискретизация насыщенности : 4:2:0
Битовая глубина : 8 бит
Тип развёртки : Прогрессивная
Метод сжатия : С потерями
Бит/(Пиксели*Кадры) : 0.290
Размер потока : 976 Мбайт (66%)
Библиотека кодирования : XviD 73

Аудио #1
Идентификатор : 1
Формат : AC-3
Формат/Информация : Audio Coding 3
Расширение режима : CM (complete main)
Параметр Endianness формата : Big
Идентификатор кодека : 2000
Продолжительность : 1 ч. 29 м.
Вид битрейта : Постоянный
Битрейт : 192 Кбит/сек
Каналы : 2 канала
Расположение каналов : Front: L R
Частота : 48,0 КГц
Частота кадров : 31,250 кадров/сек (1536 spf)
Метод сжатия : С потерями
Размер потока : 123 Мбайт (8%)
Выравнивание : Разделение по промежуткам
Продолжительность промежутка : 42 мс. (1,00 видеокадр)
Время предзагрузки промежутка : 500 мс.

Аудио #2
Идентификатор : 2
Формат : AC-3
Формат/Информация : Audio Coding 3
Расширение режима : CM (complete main)
Параметр Endianness формата : Big
Идентификатор кодека : 2000
Продолжительность : 1 ч. 29 м.
Вид битрейта : Постоянный
Битрейт : 192 Кбит/сек
Каналы : 2 канала
Расположение каналов : Front: L R
Частота : 48,0 КГц
Частота кадров : 31,250 кадров/сек (1536 spf)
Метод сжатия : С потерями
Размер потока : 123 Мбайт (8%)
Выравнивание : Разделение по промежуткам
Продолжительность промежутка : 42 мс. (1,00 видеокадр)
Время предзагрузки промежутка : 500 мс.

Аудио #3
Идентификатор : 3
Формат : AC-3
Формат/Информация : Audio Coding 3
Расширение режима : CM (complete main)
Параметр Endianness формата : Big
Идентификатор кодека : 2000
Продолжительность : 1 ч. 29 м.
Вид битрейта : Постоянный
Битрейт : 192 Кбит/сек
Каналы : 2 канала
Расположение каналов : Front: L R
Частота : 48,0 КГц
Частота кадров : 31,250 кадров/сек (1536 spf)
Метод сжатия : С потерями
Размер потока : 123 Мбайт (8%)
Выравнивание : Разделение по промежуткам
Продолжительность промежутка : 42 мс. (1,00 видеокадр)
Время предзагрузки промежутка : 500 мс.

Аудио #4
Идентификатор : 4
Формат : AC-3
Формат/Информация : Audio Coding 3
Расширение режима : CM (complete main)
Параметр Endianness формата : Big
Идентификатор кодека : 2000
Продолжительность : 1 ч. 29 м.
Вид битрейта : Постоянный
Битрейт : 192 Кбит/сек
Каналы : 2 канала
Расположение каналов : Front: L R
Частота : 48,0 КГц
Частота кадров : 31,250 кадров/сек (1536 spf)
Метод сжатия : С потерями
Размер потока : 123 Мбайт (8%)
Выравнивание : Разделение по промежуткам
Продолжительность промежутка : 42 мс. (1,00 видеокадр)
Время предзагрузки промежутка : 500 мс.

pb.wtf



Скачать Большие каникулы через торрент http://pic1.kartinco.top/images/10/sr2bl.jpg Скачать фильм Большие каникулы через торрент бесплантно в хорошем качестве Описание: Мсье Боскье, директор престижной частной школы-интерната, чувствует себя опозоренным, узнав, что его старший сын Филипп провалил ... 10 10 6
Info! Золотая раздача, скачанное не засчитывается.
Торрент: Зарегистрирован [2016-10-05 18:28] · скачан: 33 раз
Статус: √ проверено
Размер: 1.45 GB
Как cкачать? Как скачать Большие каникулы через торрент | qTorrent

% Раздел Тема Автор DL S | L
Классика зарубежного кино [ 2.18 GB ] Большие каникулы / Les grandes vacances [1967 BDRip-AVC] 2xMVO DVO koenig Скачать
1 | 0


>> Регистрируемся здесь <<






Отзывы и комментарии о схеме читаем и пишем здесь: ---> Отзывы и комментарии о схеме

Новые благодарочки в телеграм довольных пользователей:
скриншот   скриншот   скриншот   скриншот   скриншот
    Дорогой пользователь! Огромная просьба, поблагодарите релизера, оцените раздачу и оставьте свои комментарий, если Вы скачали Большие каникулы через торрент бесплатно! Внесите свою лепту в развитие PiratBit!
    Комментировать посты могут только пользователи прошедшие не сложную регистрацию
    Показать сообщения:    

    Большие каникулы через торрент
    Скачать бесплатно Большие каникулы
    Большие каникулы скачать торрент
    Большие каникулы смотреть онлайн
    Cкачать фильм Большие каникулы бесплатно
    Большие каникулы скачать торрент в хорошем качестве
    Большие каникулы смотреть онлайн бесплатно в хорошем качестве


    Вы не можете начинать темы
    Вы не можете отвечать на сообщения
    Вы не можете редактировать свои сообщения
    Вы не можете удалять свои сообщения
    Вы не можете голосовать в опросах
    Вы не можете прикреплять файлы к сообщениям
    Вы можете скачивать файлы