Ссылка на приватное зеркало нашего сайта всего за 1$. Внимание количество ограничено!!!

2 сезон

iTunes

1 сезон

1

2 сезон

2 сезон

iTunes

1 сезон

RePack

30

Новинка

ВАЖНО

ИГРА 18+

pack

RePack

MK11
pack

Забери бонус

RePack

jed

!!Акция!!

Alien_Rage

RePack

fifa19

RePack

Assassins Creed: Odyssey

RePack

NEED FOR SPEED™ PAYBACK

4 сезон

9 сезон

Бесстыжие 9 сезон

Все сериалы

все сериалы на PB.wtf

RePack

FAR CRY 5
  

Флэш / The Flash / Сезон: 3 / Серии 1-23 из 23 (Дермотт Даунс / Dermott Downs, Ральф Хемекер / Ralph Hemecker, Джесси Уарн / Jesse Warn) [2016, США, фантастика, боевик, драма, WEB-DLRip-AVC] MVO [BaibaKo] pb.wtf

Флэш через торрент pb.wtf

Размер: 18.49 GB | Добавлен: 3 года 6 мес. назад | Торрент скачан:28 раз
Скачать  

06-10-2016 01:12 Флэш Скачать торрент  

Флэш / The Flash
«Discover what makes a hero»


  • Год выпуска: 2016
  • Страна: США
  • Жанр: фантастика, боевик, драма, приключения
  • Продолжительность: 00:41:59 (Серия)
  • Перевод: Профессиональный многоголосый [BaibaKo]
  • Режиссер: Дермотт Даунс / Dermott Downs, Ральф Хемекер / Ralph Hemecker, Джесси Уарн / Jesse Warn
  • В ролях:

    Грант Гастин (Barry Allen), Кэндис Паттон (Iris West), Даниэль Панабэйкер (Caitlin Snow), Карлос Валдес (Cisco Ramon), Томас Кэвэна (Dr. Harrison Wells), Джесси Л. Мартин (Joe West), Кейнан Лонсдейл (Wally West), Рик Коснетт (Eddie Thawne), Патрик Сабонгуй (Captain David Singh), Тедди Сирс (Jay Garrick), Джон Уэсли Шипп (Henry Allen), Вайолетт Бин (Jesse Wells)


  • Из-за несчастного случая судмедэксперт Барри Аллен приобретает способность передвигаться с невероятной скоростью. Этот случай делает из него супергероя, которым он всегда мечтал стать. Защищая город, как ангел-хранитель, делая невозможное, спасая жизни со скоростью вспышки, по подсказке Оливера Куина (Стрела), он берёт себе и соответствующее имя - Флэш.
    Сериал основан на супергерое "DC Comics" по имени Флэш (Барри Аллен), борце с преступностью в костюме, который был создан Робертом Кнайгером, Джоном Брумом и Кармином Инфантино. Является спин-оффом сериала «Стрела» и происходит в той же вселенной.
  • Рейтинг:



  • Качество: WEB-DLRip-AVC
  • Формат: MP4
  • Видео кодек: AVC
  • Аудио кодек: AC3
  • Видео: 1024x576 (16:9), 1900 kbps, 23,976 fps, 0,134 bpp
  • Аудио №1: русский / 5.1 / 48 kHz / 384 kbps / 16 bit |[BaibaKo]|
  • Аудио №2: английский / 5.1 / 48 kHz / 384 kbps / 16 bit
  • Релиз от: GEKADOL

    Внимание! Раздача ведётся путём добавления новых серий; при каждом добавлении создаётся новый торрент. Чтобы начать докачку новой серии, пользователям необходимо сделать следующее:
    (1) остановить скачивание,
    (2) удалить старый торрент у себя из клиента (старые серии удалять не надо),
    (3) скачать новый торрент и запустить его у себя в клиенте вместо старого, при этом указать клиенту путь в старую папку куда и должно происходить скачивание новых серий.
    Ваш клиент при этом должен произвести хеширование (проверку) старой папки (если не производит сам - помогите ему сделать это), и будет докачивать только те серии которых у вас ещё нет. Старые серии при этом не удаляются, а продолжают раздаваться!
    Eсли вы уже удалили старые серии, то предотвратить повторную закачку старых серий можно, отжав галочку в соответствующих местах при запуске нового торрента. По возможности, желательно не удалять старые серии как можно дольше чтобы релизёр не столько продолжал раздавать старые серии, а смог сконцентрироваться на новых.

    General
    Complete name : H:\Флэш (The Flash 3)\The.Flash.s03e01.WEB-DLRip-AVC.Rus.Eng.BaibaKo.tv.mp4
    Format : MPEG-4
    Format profile : Base Media
    Codec ID : isom (isom/iso2/avc1/mp41)
    File size : 803 MiB
    Duration : 41 min
    Overall bit rate : 2 674 kb/s
    Writing application : XviD4PSP 7.0.299 DAILY
    HDVideo : Yes
    encoding_info : MATROSKA / WEBM > MP4 Произвольный / H264 > X264 CBR 2000kbps HQ / AC3 > AC3 CBR 384kbps / AC3 > AC3 CBR 384kbps

    Video
    ID : 1
    Format : AVC
    Format/Info : Advanced Video Codec
    Format profile : High@L3.1
    Format settings, CABAC : Yes
    Format settings, ReFrames : 4 frames
    Codec ID : avc1
    Codec ID/Info : Advanced Video Coding
    Duration : 41 min
    Bit rate : 1 900 kb/s
    Nominal bit rate : 2 000 kb/s
    Width : 1 024 pixels
    Height : 576 pixels
    Display aspect ratio : 16:9
    Frame rate mode : Constant
    Frame rate : 23.976 (24000/1001) FPS
    Color space : YUV
    Chroma subsampling : 4:2:0
    Bit depth : 8 bits
    Scan type : Progressive
    Bits/(Pixel*Frame) : 0.134
    Stream size : 571 MiB (71%)
    Writing library : x264 core 148 r2705M 3f5ed56
    Encoding settings : cabac=1 / ref=3 / deblock=1:-1:-1 / analyse=0x3:0x133 / me=hex / subme=7 / psy=1 / psy_rd=1.00:0.20 / mixed_ref=1 / me_range=16 / chroma_me=1 / trellis=1 / 8x8dct=1 / cqm=0 / deadzone=21,11 / fast_pskip=1 / chroma_qp_offset=-3 / threads=5 / lookahead_threads=1 / sliced_threads=0 / nr=0 / decimate=1 / interlaced=0 / bluray_compat=0 / constrained_intra=0 / bframes=3 / b_pyramid=2 / b_adapt=2 / b_bias=0 / direct=3 / weightb=1 / open_gop=0 / weightp=2 / keyint=230 / keyint_min=23 / scenecut=40 / intra_refresh=0 / rc_lookahead=40 / rc=cbr / mbtree=1 / bitrate=2000 / ratetol=1.0 / qcomp=0.60 / qpmin=0 / qpmax=69 / qpstep=4 / vbv_maxrate=2000 / vbv_bufsize=2000 / nal_hrd=none / filler=0 / ip_ratio=1.40 / aq=1:1.00

    Audio #1
    ID : 2
    Format : AC-3
    Format/Info : Audio Coding 3
    Mode extension : CM (complete main)
    Format settings, Endianness : Big
    Codec ID : ac-3
    Duration : 41 min
    Bit rate mode : Constant
    Bit rate : 384 kb/s
    Channel(s) : 6 channels
    Channel positions : Front: L C R, Side: L R, LFE
    Sampling rate : 48.0 kHz
    Frame rate : 31.250 FPS (1536 spf)
    Bit depth : 16 bits
    Compression mode : Lossy
    Stream size : 115 MiB (14%)
    Language : Russian
    Default : Yes
    Alternate group : 1

    Audio #2
    ID : 3
    Format : AC-3
    Format/Info : Audio Coding 3
    Mode extension : CM (complete main)
    Format settings, Endianness : Big
    Codec ID : ac-3
    Duration : 41 min
    Bit rate mode : Constant
    Bit rate : 384 kb/s
    Channel(s) : 6 channels
    Channel positions : Front: L C R, Side: L R, LFE
    Sampling rate : 48.0 kHz
    Frame rate : 31.250 FPS (1536 spf)
    Bit depth : 16 bits
    Compression mode : Lossy
    Stream size : 115 MiB (14%)
    Language : English
    Default : No
    Alternate group : 1



    Скриншоты:
    скриншот   скриншот   скриншот   скриншот   скриншот   скриншот   скриншот  
    скриншот  

    Раздача ведётся путём добавления новых серий. Добавлена 23 серия (25.05.2017).Просьба перекачать торрент файл.

    pb.wtf



  • Скачать Флэш через торрент http://pic1.kartinco.top/images/11/hhkt6.jpg Скачать фильм Флэш через торрент бесплантно в хорошем качестве qw.png Из-за несчастного случая судмедэксперт Барри Аллен приобретает способность передвигаться с невероятной скоростью. Этот случай ... 9.7 10 29
    Info! Золотая раздача, скачанное не засчитывается.
    Торрент: Зарегистрирован [2017-05-25 12:23] · скачан: 28 раз
    Статус: √ проверено
    Размер: 18.49 GB
    Как cкачать? Как скачать Флэш через торрент | qTorrent

    % Раздел Тема Автор DL S | L
    T Релизы по Парсеру [Игры, Сериалы и Фильмы и другое...] [ 9.29 GB ] Флэш / The Flash / Сезон: 3 / Серии 1-19 из 23 [2016 Россия WEB-DLRip от qqss44] LostFilm Nirvana Скачать
    1 | 0


    Последний раз редактировалось: GEKADOL (2017-05-25 12:23), всего редактировалось 32 раз(а)

    28-11-2019 20:33  

    Отключить всю рекламу на сайте

    06-10-2016 05:36 Флэш Скачать торрент  

    Карассавчик Гек!!! Первый нах!!! pb.wtf



    06-10-2016 11:05 Флэш Скачать торрент  

    LeeH@N писал(а):

    Карассавчик Гек!!! Первый нах!!!

    pb.wtf



    17-10-2016 16:05 Флэш Скачать торрент  

    Когда добавишь 2ю серию?pb.wtf



    29-10-2016 08:04 Флэш Скачать торрент  

    как сериальчик тянет посмотреть с первого сезона?заранее благодарен!pb.wtf



    30-10-2016 14:23 Флэш Скачать торрент  

    paparac писал(а):

    как сериальчик тянет посмотреть с первого сезона?заранее благодарен!

    С первого сезона смотри) Сериал интересный. Особенно как раз таки первый сезон)pb.wtf



    08-12-2016 06:46 Флэш Скачать торрент  

    Карассавчик Гек!pb.wtf



    26-01-2017 03:35 Флэш Скачать торрент  

    5pav писал(а):

    Карассавчик Гек!

    Погнали дальше)pb.wtf



    25-05-2017 12:25 Флэш Скачать торрент  

    Всем приятного просмотра!!! pb.wtf



      Дорогой пользователь! Огромная просьба, поблагодарите релизера, оцените раздачу и оставьте свои комментарий, если Вы скачали Флэш через торрент бесплатно! Внесите свою лепту в развитие PiratBit!
      Комментировать посты могут только пользователи прошедшие не сложную регистрацию
      Показать сообщения:    

      Флэш через торрент
      Скачать бесплатно Флэш
      Флэш скачать торрент
      Флэш смотреть онлайн
      Cкачать фильм Флэш бесплатно
      Флэш скачать торрент в хорошем качестве
      Флэш смотреть онлайн бесплатно в хорошем качестве


      Вы не можете начинать темы
      Вы не можете отвечать на сообщения
      Вы не можете редактировать свои сообщения
      Вы не можете удалять свои сообщения
      Вы не можете голосовать в опросах
      Вы не можете прикреплять файлы к сообщениям
      Вы можете скачивать файлы