Ссылка на приватное зеркало нашего сайта всего за 1$. Внимание количество ограничено!!!

2 сезон

iTunes

1 сезон

1

iTunes

iTunes

iTunes

1 сезон

RePack

30

ИГРА 18+

pack

ВАЖНО

!!Акция!!

Alien_RageХит недели

RePack

MK11
pack

Забери бонус

RePack

jed

!!Акция!!

Alien_Rage

RePack

fifa19

RePack

Assassins Creed: Odyssey

RePack

NEED FOR SPEED™ PAYBACK

4 сезон

9 сезон

Бесстыжие 9 сезон

Все сериалы

все сериалы на PB.wtf

RePack

FAR CRY 5
  

Призрак / Ghost Writer, The (Роман Полански) [2009 г., триллер, драма, детектив, ...BDRip (720p)] pb.wtf

Призрак через торрент pb.wtf

Размер: 4.77 GB | Добавлен: 10 лет назад | Торрент скачан:174 раза
Скачать  

02-09-2010 19:37 Призрак Скачать торрент  

Призрак / Ghost Writer, TheГод выпуска: 2009
Страна: Германия, Франция, Великобритания
Жанр: триллер, драма, детектив, ...
Продолжительность: 128 мин.

Режиссер: Роман Полански
Продюссер: Роберт Бенмусса, Тимоти Баррилл, Кристоф Фиссер, ...
Сценарий: Роберт Харрис, Роман Полански
Перевод: Профессиональный (полное дублирование)

Бюджет: $45 000 000
Премьера в мире: 12 февраля 2010


PG-13
-Детям до 13 лет просмотр не желателен
Мировой рейтинг IMDB 7.60 (17 038)



В ролях: Юэн МакГрегор, Джон Бернтал, Ким Кэтролл, Пирс Броснан, Тим Прис, Джеймс Белуши, Оливия Уильямс, Тимоти Хаттон, Анна Боттинг, Том Уилкинс

Описание: «Призраками пера» зовут в издательском мире «литературных негров». Их жизнь и муки творчества неизвестны никому, но результаты их трудов становятся бестселлерами. Один из них погибает таинственной смертью как раз накануне сдачи будущего хита продаж, мемуаров бывшего премьер-министра Великобритании Адама Лэнга. Чтобы завершить «труд» политика, издательство нанимает Призрака-профессионала. Но педантичный и обычно успешный Призрак даже не представлял, что задача написать мемуары  из числа смертельно опасных, когда в биографии твоего героя  сплошь и рядом белые пятна, подозрительно напоминающие реальные государственные тайны

Качество: BDRip [720p]
Формат: MKV
Видео кодек: H.264 codec
Аудио кодек: AC3
Видео: 1 280x544, 4 322 Kbps
Аудио: Russian AC3 Dolby Digital; 448.00 kbps; 5.1 Ch; 48 kHz
Subtitle.......: Russian, English.
General
Complete name : Prizrak.2009.RUS.BDRip.h264.720p.AC3.-HQ-ViDEO.mkv
Format : Matroska
File size : 4.37 GiB
Duration : 2h 8mn
Overall bit rate : 4 867 Kbps
Movie name : The Ghost Writer (2010)
Encoded date : UTC 2010-09-02 13:12:37
Writing application : mkvmerge v3.3.0 ('Language') built on Mar 24 2010 14:59:24
Writing library : libebml v0.8.0 + libmatroska v0.9.0

Video
ID : 1
Format : AVC
Format/Info : Advanced Video Codec
Format profile : High L4.1
Format settings, CABAC : Yes
Format settings, ReFrames : 6 frames
Muxing mode : Container profile=Unknown@4.1
Codec ID : V_MPEG4/ISO/AVC
Duration : 2h 8mn
Bit rate : 4 322 Kbps
Width : 1 280 pixels
Height : 544 pixels
Display aspect ratio : 2.35:1
Frame rate : 23.976 fps
Resolution : 8 bits
Colorimetry : 4:2:0
Scan type : Progressive
Bits/(Pixel*Frame) : 0.259
Stream size : 3.88 GiB (89%)
Title : Encoded by GYN

Audio
ID : 2
Format : AC-3
Format/Info : Audio Coding 3
Codec ID : A_AC3
Duration : 2h 8mn
Bit rate mode : Constant
Bit rate : 448 Kbps
Channel(s) : 6 channels
Channel positions : Front: L C R, Surround: L R, LFE
Sampling rate : 48.0 KHz
Stream size : 412 MiB (9%)
Title : DUB
Language : Russian

Text #1
ID : 3
Format : UTF-8
Codec ID : S_TEXT/UTF8
Codec ID/Info : UTF-8 Plain Text
Language : Russian

Text #2
ID : 4
Format : UTF-8
Codec ID : S_TEXT/UTF8
Codec ID/Info : UTF-8 Plain Text
Language : English
pb.wtf



Скачать Призрак через торрент http://ecx.images-amazon.com/images/I/51wlLUk8hZL.jpg Скачать фильм Призрак через торрент бесплантно в хорошем качестве Описание: «Призраками пера» зовут в издательском мире «литературных негров». Их жизнь и муки творчества неизвестны никому, но результаты ... 10 10 1
Info! Золотая раздача, скачанное не засчитывается.
Торрент: Зарегистрирован [2010-09-02 19:37] · скачан: 174 раз
Статус: √ проверено
Размер: 4.77 GB
Как cкачать? Как скачать Призрак через торрент | qTorrent

% Раздел Тема Автор DL S | L
Фильмы [HD 720p, 1080p] (Хороший звук DUB, MVO) [ 6.4 GB ] Призрак / The Ghost Writer [2010 BDRip 720p by msltel] DUB 2 x MVO DVO AVO VO msltel Скачать
1 | 1
Фильмы [HD 720p, 1080p] (Хороший звук DUB, MVO) [ 18.73 GB ] Призрак / The Ghost Writer [2010 BDRip 1080p by msltel] DUB 2 x MVO DVO AVO VO msltel Скачать
1 | 0
Фильмы 2010 [ 2.01 GB ] Призрак / The Ghost Writer [2009 HDRip лицензия] Newton5 Скачать
1 | 0
Фильмы 2009 [ 746 MB ] Призрак / Ghost Writer The [2009 HDRip] Venxxx Скачать
1 | 0
Фильмы 2009 [ 1.46 GB ] Призрак / Ghost Writer The [2010 BDRip] ACFIORENTINA Скачать
1 | 0
Фильмы 2009 [ 2.05 GB ] Призрак / The Ghost Writer [2010 НDRip] [ лицензия ] MIO2008 Скачать
1 | 0
Фильмы [HD 720p, 1080p] (Хороший звук DUB, MVO) [ 13.95 GB ] Призрак / The Ghost Writer [2010 BDRip ] Flint3 Скачать
1 | 1


Последний раз редактировалось: Shmel (2010-09-02 19:41), всего редактировалось 4 раз(а)

28-11-2019 20:33  

Отключить всю рекламу на сайте

02-09-2010 19:38 Призрак Скачать торрент  

Спасиб)pb.wtf



02-09-2010 20:42 Призрак Скачать торрент  

Прикольный фильм мне понравился. 7/10 балловpb.wtf



13-09-2010 20:22 Призрак Скачать торрент  

Не плохой, политический триллер. Очень интересно было смотреть зная что Романа Полански США пытаюся прессовать, может не только за изнасилование!? Спасибо за раздачу!pb.wtf



    Дорогой пользователь! Огромная просьба, поблагодарите релизера, оцените раздачу и оставьте свои комментарий, если Вы скачали Призрак через торрент бесплатно! Внесите свою лепту в развитие PiratBit!
    Комментировать посты могут только пользователи прошедшие не сложную регистрацию
    Показать сообщения:    

    Призрак через торрент
    Скачать бесплатно Призрак
    Призрак скачать торрент
    Призрак смотреть онлайн
    Cкачать фильм Призрак бесплатно
    Призрак скачать торрент в хорошем качестве
    Призрак смотреть онлайн бесплатно в хорошем качестве


    Вы не можете начинать темы
    Вы не можете отвечать на сообщения
    Вы не можете редактировать свои сообщения
    Вы не можете удалять свои сообщения
    Вы не можете голосовать в опросах
    Вы не можете прикреплять файлы к сообщениям
    Вы можете скачивать файлы