Ссылка на приватное зеркало нашего сайта всего за 1$. Внимание количество ограничено!!!

2 сезон

iTunes

1 сезон

1

2 сезон

2 сезон

iTunes

1 сезон

RePack

30

Новинка

ВАЖНО

ИГРА 18+

pack

RePack

MK11
pack

Забери бонус

RePack

jed

!!Акция!!

Alien_Rage

RePack

fifa19

RePack

Assassins Creed: Odyssey

RePack

NEED FOR SPEED™ PAYBACK

4 сезон

9 сезон

Бесстыжие 9 сезон

Все сериалы

все сериалы на PB.wtf

RePack

FAR CRY 5
  

Человек в высоком замке / The Man in the High Castle / Сезон: 1 / Серии: 1-10 (10) (Дэвид Семел) [2015, фантастика, триллер, драма, WEBRip] [MVO] (Jaskier) pb.wtf

Человек в высоком замке через торрент pb.wtf

Размер: 6 GB | Добавлен: 4 года 1 мес. назад | Торрент скачан:142 раза
Скачать  

06-10-2016 07:37 Человек в высоком замке Скачать торрент  

Человек в высоком замке / The Man in the High Castle
Год выпуска: 2015
Страна: США
Жанр: фантастика, триллер, драма
Продолжительность: 10 x ~ 00:59:00
Перевод: Професиональный (многоголосый, закадровый) [Студия Jaskier]
Cубтитры: нет

Режиссер: Дэвид Семел / David Semel

В ролях: Алекса Давалос, Руперт Эванс, Люк Клеинтенк, DJ Куаллс, Джоэль де ла Фуэнте, Кэри-Хироюки Тагава, Руфус Сьюэлл, Майкл Рисполи, Джеффри Блейк, Бернхард Форхер

Описание:
Германия и Япония выиграли Вторую мировую. Америка разделена пополам между победителями, но, разумеется, спустя много лет после поражения (действие разворачивается в 1962-м) сознательные американцы организуют глубоко засекреченное подполье. Занимаются повстанцы в основном распространением странной кинохроники, на которой показана победа в войне союзнических войск. Именно с этими пленками в руках в нейтральную зону между двумя Америками отправляются Джо и Джулс — юноша и девушка, пробующие свои силы в борьбе с режимом.



Качество: WEBRip
Формат: AVI
Видео кодек: XvID
Аудио кодек: MP3
Видео: XviD, 624x352, 25 fps, build 73 ~1200 kbps avg, 0.26 bit/pixel
Аудио: 48 kHz, MP3, 2/0 (L,R) ch, ~128 kbps - [MVO]
General
Complete name : E:\The.Man.In.The.High.Castle (S01) Jaskier\Chelovek.V.Vysokom.Zamke.S01E01.Jaskier.avi
Format : AVI
Format/Info : Audio Video Interleave
File size : 499 MiB
Duration : 1h 0mn
Overall bit rate : 1 463 Kbps
Writing application : VirtualDubMod 1.5.10.2 (build 2540/release)
Writing library : VirtualDubMod build 2540/release

Video
ID : 0
Format : MPEG-4 Visual
Format profile : Advanced Simple@L5
Format settings, BVOP : 2
Format settings, QPel : No
Format settings, GMC : No warppoints
Format settings, Matrix : Default (H.263)
Codec ID : XVID
Codec ID/Hint : XviD
Duration : 1h 0mn
Bit rate : 1200 Kbps
Width : 624 pixels
Height : 352 pixels
Display aspect ratio : 16:9
Frame rate : 25.000 fps
Color space : YUV
Chroma subsampling : 4:2:0
Bit depth : 8 bits
Scan type : Progressive
Compression mode : Lossy
Bits/(Pixel*Frame) : 0.174
Stream size : 421 MiB (84%)
Writing library : XviD 64

Audio
ID : 1
Format : MPEG Audio
Format version : Version 1
Format profile : Layer 3
Mode : Joint stereo
Mode extension : MS Stereo
Codec ID : 55
Codec ID/Hint : MP3
Duration : 59mn 38s
Bit rate mode : Constant
Bit rate : 128 Kbps
Channel(s) : 2 channels
Sampling rate : 44.1 KHz
Compression mode : Lossy
Delay relative to video : 4ms
Stream size : 54.6 MiB (11%)
Alignment : Split accross interleaves
pb.wtf



Скачать Человек в высоком замке через торрент http://i84.fastpic.ru/big/2016/1006/b3/52118a015ab38ea09fd52dd4c3c3e0b3.png Скачать фильм Человек в высоком замке через торрент бесплантно в хорошем качестве Описание:Германия и Япония выиграли Вторую мировую. Америка разделена пополам между победителями, но, разумеется, спустя много лет после ... 10 10 2
Торрент: Зарегистрирован [2016-10-06 07:37] · скачан: 142 раз
Статус: √ проверено
Размер: 6 GB
Как cкачать? Как скачать Человек в высоком замке через торрент | qTorrent

% Раздел Тема Автор DL S | L
Зарубежные сериалы [ 6.95 GB ] Человек в высоком замке / The Man in the High Castle / Сезон: 4 / Серии: 1-10 из 10 [2019 WEB-DLRip] [MVO] killermax2013 Скачать
1 | 0
Фильмы с украинским озвучиванием [ 59.42 GB ] Человек в высоком замке / The Man in the High Castle / Сезон: 4 / Серии: 1-10 из 10 [2019 WEBRip 1080p] [Ukr MVO] killermax2013 Скачать
1 | 0
Зарубежные сериалы [ 34.63 GB ] Человек в высоком замке / The Man in the High Castle / Сезон: 4 / Серии: 1-10 из 10 [2019 WEB-DL 1080p] MVO [Jaskier] bober100 Скачать
1 | 0
Зарубежные сериалы [ 16.97 GB ] Человек в высоком замке / The Man in the High Castle / Сезон: 4 / Серии: 1-10 из 10 [2019 WEB-DL 720p] MVO [Jaskier] bober100 Скачать
1 | 0
Зарубежные сериалы [ 5.98 GB ] Человек в высоком замке / The Man in the High Castle / Сезон: 4 / Серии: 1-10 из 10 [2019 WEB-DLRip] MVO [Jaskier] bober100 Скачать
2 | 0
Зарубежные сериалы [ 7.08 GB ] Человек в высоком замке / The Man in the High Castle / Сезон: 4 / Серии: 1-10 из 10 [2019 WEBRip] [MVO] killermax2013 Скачать
3 | 0
Зарубежные сериалы [ 16.98 GB ] Человек в высоком замке / The Man in the High Castle / Сезон: 4 / Серии: 1-10 из 10 [2019 WEBRip 720p] [MVO] killermax2013 Скачать
1 | 0


Последний раз редактировалось: killermax2013 (2016-10-06 07:41), всего редактировалось 1 раз

28-11-2019 20:33  

Отключить всю рекламу на сайте

06-10-2016 07:39 Человек в высоком замке Скачать торрент  

Второй сезон выходит в декабре pb.wtf



    Дорогой пользователь! Огромная просьба, поблагодарите релизера, оцените раздачу и оставьте свои комментарий, если Вы скачали Человек в высоком замке через торрент бесплатно! Внесите свою лепту в развитие PiratBit!
    Комментировать посты могут только пользователи прошедшие не сложную регистрацию
    Показать сообщения:    

    Человек в высоком замке через торрент
    Скачать бесплатно Человек в высоком замке
    Человек в высоком замке скачать торрент
    Человек в высоком замке смотреть онлайн
    Cкачать фильм Человек в высоком замке бесплатно
    Человек в высоком замке скачать торрент в хорошем качестве
    Человек в высоком замке смотреть онлайн бесплатно в хорошем качестве


    Вы не можете начинать темы
    Вы не можете отвечать на сообщения
    Вы не можете редактировать свои сообщения
    Вы не можете удалять свои сообщения
    Вы не можете голосовать в опросах
    Вы не можете прикреплять файлы к сообщениям
    Вы можете скачивать файлы