новый адрес пиратбит piratbit
Мега распродажа FORZA HORIZON 4 ULTIMATE+ВСЕ DLC+ОНЛАЙН всего за 499р. 349 руб. (супер цена). Внимание количество ограничено!!!

iTunes

1+1

iTunes

мы

iTunes

1

iTunes

Чернобыль

iTunes

Ральф против интернета

Лицензия

ПШазам

Лицензия

Игра престолов

Лицензия

30
pack

ВАЖНО

!!Акция!!

Alien_RageХит недели

RePack

Resident Evil 21

ИГРА 18+

pack

RePack

Metro:Exodus

!!Акция!!

Alien_Rage

RePack

fifa19

RePack

Assassins Creed: Odyssey

RePack

NEED FOR SPEED™ PAYBACK

3 сезон

9 сезон

Бесстыжие 9 сезон

Все сериалы

все сериалы на PB.wtf

RePack

FAR CRY 5
Ребята, катастрофически не хватает 1900р. для оплаты серверов за Октябрь (всвязи с блокировками трафик упал в 3 раза), 1-2р., выручайте.
  

Андрей Рублев (Андрей Тарковский ) [1966, драма, биография, история, DVDRip] pb.wtf

Андрей Рублев через торрент pb.wtf

Качают: 1 [ 0 KB/s ]
Размер: 2.9 GB | Добавлен: 3 года 1 мес. назад | Торрент скачан:7 раз
Скачать  

06-10-2016 10:03 Андрей Рублев Скачать торрент  

Андрей Рублев

Год выпуска: 1966
Страна: СССР
Жанр: драма, биография, история

Продолжительность: 03:26:00
Перевод: Не требуется [Русский]
Режиссер: Андрей Тарковский
В ролях: Анатолий Солоницын (Андрей Рублев), Иван Лапиков (Кирилл), Николай Гринько (Данил Черный), Николай Сергеев (иконописец Феофан Грек), Ирина Тарковская (дурочка), Николай Бурляев (Бориска), Юрий Назаров (Великий князь / Малый князь), Юрий Никулин (монах Патрикей), Ролан Быков (скоморох), Николай Граббе (Степан), Михаил Кононов (Фома), Ирина Мирошниченко (Мария Магдалина)
Описание:
Русь начала XV века. Страну раздирают княжеские междоусобицы. Набеги татар, голод и мор преследуют народ… В эту трагическую эпоху появляется на Руси великий живописец, жизни и творчеству которого посвящен фильм.
Сведения о нем скудны и отрывочны. Лишь немногие творения гениального мастера дошли до нас. Авторы фильма стремились воссоздать духовный мир Андрея Рублева.

Качество: DVDRip
Формат: AVI
Видео: XviD, 720x304 (2.35:1), 1913 kbps, 23,976 fps, 0,365 bpp
Аудио: AC3 / 1 / 48 kHz / 96 kbps /

General
Complete name Андрей Рублев.avi
Format : AVI
Format/Info : Audio Video Interleave
Format profile : OpenDML
File size : 2.90 GiB
Duration : 3 h 26 min
Overall bit rate : 2 017 kb/s
Writing application : VirtualDubMod 1.5.4.1 (build 2178/release)
Writing library : VirtualDubMod build 2178/release

Video
ID : 0
Format : MPEG-4 Visual
Format profile : Advanced Simple@L5
Format settings, BVOP : No
Format settings, QPel : No
Format settings, GMC : No warppoints
Format settings, Matrix : Custom
Codec ID : XVID
Codec ID/Hint : XviD
Duration : 3 h 26 min
Bit rate : 1 914 kb/s
Width : 720 pixels
Height : 304 pixels
Display aspect ratio : 2.35:1
Frame rate : 23.976 (23976/1000) FPS
Color space : YUV
Chroma subsampling : 4:2:0
Bit depth : 8 bits
Scan type : Progressive
Compression mode : Lossy
Bits/(Pixel*Frame) : 0.365
Stream size : 2.75 GiB (95%)
Writing library : XviD 1.2.1 (UTC 2008-12-04)

Audio
ID : 1
Format : AC-3
Format/Info : Audio Coding 3
Mode extension : CM (complete main)
Format settings, Endianness : Big
Codec ID : 2000
Duration : 3 h 26 min
Bit rate mode : Constant
Bit rate : 96.0 kb/s
Channel(s) : 1 channel
Channel positions : Front: C
Sampling rate : 48.0 kHz
Frame rate : 31.250 FPS (1536 spf)
Compression mode : Lossy
Stream size : 141 MiB (5%)
Alignment : Split accross interleaves
Interleave, duration : 96 ms (2.30 video frames)
Interleave, preload duration : 96 ms
Скриншоты:
pb.wtf



Скачать Андрей Рублев через торрент http://i5.imageban.ru/out/2016/10/06/371024f4096eb86bb7ce6cba1ae08a53.jpg Скачать фильм Андрей Рублев через торрент бесплантно в хорошем качестве Описание: Русь начала XV века. Страну раздирают княжеские междоусобицы. Набеги татар, голод и мор преследуют народ… В эту трагическую эпоху ... 10 10 2
Торрент: Зарегистрирован [2016-10-06 10:03] · скачан: 7 раз
Статус: √ проверено
Размер: 2.9 GB
Как cкачать? Как скачать Андрей Рублев через торрент | qTorrent

% Раздел Тема Автор DL S | L
Арт-хаус и авторское кино [ 12.12 GB ] Андрей Тарковский. Фильмография [1962-1986 DVDRip] Drakosha Скачать
1 | 0
Наши фильмы (HD, WEB-DL 720p, 1080p) [ 10.57 GB ] Андрей Рублев [1966 СССР биография история BDRip 720p] Оригинал от R.G. PiratFilms Messa-fan Скачать
1 | 0
Наши фильмы (HD, WEB-DL 720p, 1080p) [ 8.73 GB ] Андрей Рублёв [1966 биография история BDRip ] Anonymous Скачать
1 | 0


>> Регистрируемся здесь <<






Отзывы и комментарии о схеме читаем и пишем здесь: ---> Отзывы и комментарии о схеме

Новые благодарочки в телеграм довольных пользователей:
скриншот   скриншот   скриншот   скриншот   скриншот
    Дорогой пользователь! Огромная просьба, поблагодарите релизера, оцените раздачу и оставьте свои комментарий, если Вы скачали Андрей Рублев через торрент бесплатно! Внесите свою лепту в развитие PiratBit!
    Комментировать посты могут только пользователи прошедшие не сложную регистрацию
    Показать сообщения:    

    Андрей Рублев через торрент
    Скачать бесплатно Андрей Рублев
    Андрей Рублев скачать торрент
    Андрей Рублев смотреть онлайн
    Cкачать фильм Андрей Рублев бесплатно
    Андрей Рублев скачать торрент в хорошем качестве
    Андрей Рублев смотреть онлайн бесплатно в хорошем качестве


    Вы не можете начинать темы
    Вы не можете отвечать на сообщения
    Вы не можете редактировать свои сообщения
    Вы не можете удалять свои сообщения
    Вы не можете голосовать в опросах
    Вы не можете прикреплять файлы к сообщениям
    Вы можете скачивать файлы