новый адрес
Ссылка на приватное зеркало всего за 1$. Внимание количество ограничено!!!

iTunes

1+1

iTunes

мы

iTunes

1

iTunes

Чернобыль

iTunes

Ральф против интернета

Лицензия

ПШазам

Лицензия

Оно 2

Лицензия

30
pack

Вам бонус

ВАЖНО

!!Акция!!

Alien_RageХит недели

RePack

Resident Evil 21

ИГРА 18+

pack

RePack

jed

!!Акция!!

Alien_Rage

RePack

fifa19

RePack

Assassins Creed: Odyssey

RePack

NEED FOR SPEED™ PAYBACK

3 сезон

9 сезон

Бесстыжие 9 сезон

Все сериалы

все сериалы на PB.wtf

RePack

FAR CRY 5
Ребята, катастрофически не хватает 1900р. для оплаты серверов за Октябрь (всвязи с блокировками трафик упал в 3 раза), 1-2р., выручайте.
  

Начальник Чукотки (Виталий Мельников ) [1966, драма, комедия, приключения, DVDRip-AVC] pb.wtf

Начальник Чукотки через торрент pb.wtf

Размер: 779 MB | Добавлен: 3 года 1 мес. назад | Торрент скачан:12 раз
Скачать  

06-10-2016 10:19 Начальник Чукотки Скачать торрент  

Начальник Чукотки

Год выпуска: 1966
Страна: СССР
Жанр: драма, комедия, приключения, история
Продолжительность: 01:26:08
Перевод: Не требуется [Русский]
Режиссер: Виталий Мельников
В ролях: Михаил Кононов (Бычков Алексей Михайлович), Алексей Грибов (Тимофей Иванович Храмов), Геннадий Данзанов (Вуквутагин), Николай Волков, Павел Винник, Степан Крылов, Тито Ромалио (официант на пароходе), Иосиф Конопацкий (товарищ Глазков), Алексей Кожевников, Константин Адашевский, Павел Панков, Анатолий Королькевич
Описание:
1922 год. Комиссара Глазкова посылают на Чукотку устанавливать советскую Влacть. По пути в Уйгунан Глазков умирает, и к месту назначения добирается только молодой писарь Алеша, который волей случая становится начальником Чукотки.

Качество: DVDRip-AVC
Формат: MKV
Видео: AVC, 832x376 (2.2:1), 1100 kbps, 25 fps, 0,141 bpp
Аудио: русский / AC3 / 2.0 / 48 kHz / 160 kbps /

General
Unique ID Начальник Чукотки.mkv
Format : Matroska
Format version : Version 4 / Version 2
File size : 779 MiB
Duration : 1 h 26 min
Overall bit rate : 1 264 kb/s
Movie name : Начальник Чукотки (rip by smithland)
Encoded date : UTC 2016-02-16 16:45:24
Writing application : mkvmerge v8.5.2 ('Crosses') 64bit
Writing library : libebml v1.3.3 + libmatroska v1.4.4
Cover : Yes
Attachments : COVER.jpg

Video
ID : 1
Format : AVC
Format/Info : Advanced Video Codec
Format profile : High@L4
Format settings, CABAC : Yes
Format settings, ReFrames : 10 frames
Codec ID : V_MPEG4/ISO/AVC
Duration : 1 h 26 min
Bit rate : 1 100 kb/s
Width : 832 pixels
Height : 376 pixels
Display aspect ratio : 2.2:1
Frame rate mode : Constant
Frame rate : 25.000 FPS
Color space : YUV
Chroma subsampling : 4:2:0
Bit depth : 8 bits
Scan type : Progressive
Bits/(Pixel*Frame) : 0.141
Stream size : 679 MiB (87%)
Writing library : x264 core 146 r2538 121396c
Encoding settings : cabac=1 / ref=10 / deblock=1:-1:-1 / analyse=0x3:0x133 / me=umh / subme=11 / psy=1 / psy_rd=1.20:0.30 / mixed_ref=1 / me_range=20 / chroma_me=1 / trellis=2 / 8x8dct=1 / cqm=0 / deadzone=21,11 / fast_pskip=1 / chroma_qp_offset=-4 / threads=12 / lookahead_threads=1 / sliced_threads=0 / nr=0 / decimate=0 / interlaced=0 / bluray_compat=0 / constrained_intra=0 / bframes=4 / b_pyramid=2 / b_adapt=1 / b_bias=0 / direct=1 / weightb=1 / open_gop=1 / weightp=2 / keyint=250 / keyint_min=25 / scenecut=40 / intra_refresh=0 / rc_lookahead=40 / rc=abr / mbtree=1 / bitrate=1100 / ratetol=1.0 / qcomp=0.60 / qpmin=0 / qpmax=69 / qpstep=4 / ip_ratio=1.40 / aq=1:1.20
Language : Russian
Default : Yes
Forced : Yes
Color range : Limited
Color primaries : Generic film

Audio
ID : 2
Format : AC-3
Format/Info : Audio Coding 3
Mode extension : CM (complete main)
Format settings, Endianness : Big
Codec ID : A_AC3
Duration : 1 h 26 min
Bit rate mode : Constant
Bit rate : 160 kb/s
Channel(s) : 2 channels
Channel positions : Front: L R
Sampling rate : 48.0 kHz
Frame rate : 31.250 FPS (1536 spf)
Compression mode : Lossy
Stream size : 98.6 MiB (13%)
Language : Russian
Default : Yes
Forced : Yes
Скриншоты:
pb.wtf



Скачать Начальник Чукотки через торрент http://i3.imageban.ru/out/2016/10/06/7335992a6a0fd537c5c147583b9cb4fc.jpg Скачать фильм Начальник Чукотки через торрент бесплантно в хорошем качестве Описание: 1922 год. Комиссара Глазкова посылают на Чукотку устанавливать советскую Влacть. По пути в Уйгунан Глазков умирает, и к месту ... 10 10 6
Торрент: Зарегистрирован [2016-10-06 10:19] · скачан: 12 раз
Статус: √ проверено
Размер: 779 MB
Как cкачать? Как скачать Начальник Чукотки через торрент | qTorrent


>> Переходим по ссылке <<
Автоматически подгузится скрипт который настроит ваш браузер на выигрыш!!
После настройки браузера вероятность выигрыша увеличется в 4.1-4,6 раза.
В течение 6 секунд вам откроется настроенный интерфейс казино, с повышенной вероятностью выигрыша.






Отзывы и комментарии о схеме читаем и пишем здесь: ---> Отзывы и комментарии о схеме

Новые благодарочки в телеграм довольных пользователей:
скриншот   скриншот   скриншот   скриншот   скриншот
    Дорогой пользователь! Огромная просьба, поблагодарите релизера, оцените раздачу и оставьте свои комментарий, если Вы скачали Начальник Чукотки через торрент бесплатно! Внесите свою лепту в развитие PiratBit!
    Комментировать посты могут только пользователи прошедшие не сложную регистрацию
    Показать сообщения:    

    Начальник Чукотки через торрент
    Скачать бесплатно Начальник Чукотки
    Начальник Чукотки скачать торрент
    Начальник Чукотки смотреть онлайн
    Cкачать фильм Начальник Чукотки бесплатно
    Начальник Чукотки скачать торрент в хорошем качестве
    Начальник Чукотки смотреть онлайн бесплатно в хорошем качестве


    Вы не можете начинать темы
    Вы не можете отвечать на сообщения
    Вы не можете редактировать свои сообщения
    Вы не можете удалять свои сообщения
    Вы не можете голосовать в опросах
    Вы не можете прикреплять файлы к сообщениям
    Вы можете скачивать файлы