новый адрес пиратбит piratbit
Мега распродажа FORZA HORIZON 4 ULTIMATE+ВСЕ DLC+ОНЛАЙН всего за 499р. 349 руб. (супер цена). Внимание количество ограничено!!!

iTunes

1+1

iTunes

мы

iTunes

1

iTunes

Чернобыль

iTunes

Ральф против интернета

Лицензия

ПШазам

Лицензия

Игра престолов

Лицензия

30
pack

ВАЖНО

!!Акция!!

Alien_RageХит недели

RePack

Resident Evil 21

ИГРА 18+

pack

RePack

Metro:Exodus

!!Акция!!

Alien_Rage

RePack

fifa19

RePack

Assassins Creed: Odyssey

RePack

NEED FOR SPEED™ PAYBACK

3 сезон

9 сезон

Бесстыжие 9 сезон

Все сериалы

все сериалы на PB.wtf

RePack

FAR CRY 5
Ребята, катастрофически не хватает 1900р. для оплаты серверов за Октябрь (всвязи с блокировками трафик упал в 3 раза), 1-2р., выручайте.
  

Тревожный месяц вересень (Леонид Осыка ) [1976, боевик, военный, DVDRip-AVC] pb.wtf

Тревожный месяц вересень через торрент pb.wtf

Размер: 1.54 GB | Добавлен: 3 года 1 мес. назад | Торрент скачан:28 раз
Скачать  

06-10-2016 10:55 Тревожный месяц вересень Скачать торрент  

Тревожный месяц вересень

Год выпуска: 1976
Страна: СССР
Жанр: боевик, военный
Продолжительность: 01:29:34
Перевод: Не требуется [Русский]
Режиссер: Леонид Осыка
В ролях: Виктор Фокин (Иван Капелюх), Борислав Брондуков (Пепеленко), Антонина Лефтий (Тоня), Ирина Бунина (Варвара), Федор Панасенко (Семеренко), Иван Миколайчук (Гнат), Федор Одиноков (Клымарь), Лев Колесник, Иван Гаврилюк (Валерка), Сергей Иванов, Алексей Ян (Иван Остапович Сагайдачный)
Описание:
В украинское село Глухари, освобожденное Советской армией от фашистских оккупантов, после тяжелого ранения возвращается фронтовой разведчик Иван Капелюх. По заданию органов безопасности он становится старшим группы, которая борется с бандой Горелого - бывшего полицая, терроризирующего село.

Качество: DVDRip-AVC
Формат: MKV
Видео: AVC, 704x528 (4:3), 1968 kbps, 25 fps, 0,212 bpp
Аудио: русский / AC3 / 5.1 / 48 kHz / 448 kbps /

General
Unique ID Тревожный месяц вересень.mkv
Format : Matroska
Format version : Version 4 / Version 2
File size : 1.54 GiB
Duration : 1 h 29 min
Overall bit rate : 2 466 kb/s
Movie name : Release for Topmost
Encoded date : UTC 2016-02-14 12:17:26
Writing application : mkvmerge v6.2.0 ('Promised Land') built on Apr 28 2013 12:22:01
Writing library : libebml v1.3.0 + libmatroska v1.4.0
Cover : Yes
Attachments : cover_land.jpg

Video
ID : 1
Format : AVC
Format/Info : Advanced Video Codec
Format profile : High@L5
Format settings, CABAC : Yes
Format settings, ReFrames : 5 frames
Codec ID : V_MPEG4/ISO/AVC
Duration : 1 h 29 min
Bit rate : 1 969 kb/s
Width : 704 pixels
Height : 528 pixels
Display aspect ratio : 4:3
Frame rate mode : Constant
Frame rate : 25.000 FPS
Color space : YUV
Chroma subsampling : 4:2:0
Bit depth : 8 bits
Scan type : Progressive
Bits/(Pixel*Frame) : 0.212
Stream size : 1.23 GiB (80%)
Title : Тревожный месяц вересень (Release for Topmost)
Writing library : x264 core 146 r2538bm 121396c
Encoding settings : cabac=1 / ref=5 / deblock=1:0:0 / analyse=0x3:0x113 / me=umh / subme=8 / psy=1 / psy_rd=1.00:0.00 / mixed_ref=1 / me_range=16 / chroma_me=1 / trellis=1 / 8x8dct=1 / cqm=0 / deadzone=21,11 / fast_pskip=1 / chroma_qp_offset=-2 / threads=3 / lookahead_threads=1 / sliced_threads=0 / nr=0 / decimate=1 / interlaced=0 / bluray_compat=0 / constrained_intra=0 / bframes=3 / b_pyramid=2 / b_adapt=2 / b_bias=0 / direct=3 / weightb=1 / open_gop=0 / weightp=2 / keyint=250 / keyint_min=25 / scenecut=40 / intra_refresh=0 / rc_lookahead=50 / rc=crf / mbtree=1 / crf=19.1 / qcomp=0.60 / qpmin=0 / qpmax=69 / qpstep=4 / ip_ratio=1.40 / aq=1:1.00
Language : Russian
Default : Yes
Forced : No

Audio
ID : 2
Format : AC-3
Format/Info : Audio Coding 3
Mode extension : CM (complete main)
Format settings, Endianness : Big
Codec ID : A_AC3
Duration : 1 h 29 min
Bit rate mode : Constant
Bit rate : 448 kb/s
Channel(s) : 6 channels
Channel positions : Front: L C R, Side: L R, LFE
Sampling rate : 48.0 kHz
Frame rate : 31.250 FPS (1536 spf)
Compression mode : Lossy
Delay relative to video : 2 s 564 ms
Stream size : 287 MiB (18%)
Title : AC3, 6 ch, 448 kbps
Language : Russian
Default : Yes
Forced : No
Скриншоты:
pb.wtf



Скачать Тревожный месяц вересень через торрент http://i5.imageban.ru/out/2016/10/06/e438344a85672c14e81de1d544940b0e.jpg Скачать фильм Тревожный месяц вересень через торрент бесплантно в хорошем качестве Описание: В украинское село Глухари, освобожденное Советской армией от фашистских оккупантов, после тяжелого ранения возвращается фронтовой ... 10 10 2
Торрент: Зарегистрирован [2016-10-06 10:55] · скачан: 28 раз
Статус: √ проверено
Размер: 1.54 GB
Как cкачать? Как скачать Тревожный месяц вересень через торрент | qTorrent


>> Регистрируемся здесь <<






Отзывы и комментарии о схеме читаем и пишем здесь: ---> Отзывы и комментарии о схеме

Новые благодарочки в телеграм довольных пользователей:
скриншот   скриншот   скриншот   скриншот   скриншот
    Дорогой пользователь! Огромная просьба, поблагодарите релизера, оцените раздачу и оставьте свои комментарий, если Вы скачали Тревожный месяц вересень через торрент бесплатно! Внесите свою лепту в развитие PiratBit!
    Комментировать посты могут только пользователи прошедшие не сложную регистрацию
    Показать сообщения:    

    Тревожный месяц вересень через торрент
    Скачать бесплатно Тревожный месяц вересень
    Тревожный месяц вересень скачать торрент
    Тревожный месяц вересень смотреть онлайн
    Cкачать фильм Тревожный месяц вересень бесплатно
    Тревожный месяц вересень скачать торрент в хорошем качестве
    Тревожный месяц вересень смотреть онлайн бесплатно в хорошем качестве


    Вы не можете начинать темы
    Вы не можете отвечать на сообщения
    Вы не можете редактировать свои сообщения
    Вы не можете удалять свои сообщения
    Вы не можете голосовать в опросах
    Вы не можете прикреплять файлы к сообщениям
    Вы можете скачивать файлы