новый адрес пиратбит piratbit
Мега распродажа FORZA HORIZON 4 ULTIMATE+ВСЕ DLC+ОНЛАЙН всего за 499р. 349 руб. (супер цена). Внимание количество ограничено!!!

iTunes

1+1

iTunes

мы

iTunes

1

iTunes

Чернобыль

iTunes

Ральф против интернета

Лицензия

ПШазам

Лицензия

Игра престолов

Лицензия

30
pack

ВАЖНО

!!Акция!!

Alien_RageХит недели

RePack

Resident Evil 21

ИГРА 18+

pack

RePack

Metro:Exodus

!!Акция!!

Alien_Rage

RePack

fifa19

RePack

Assassins Creed: Odyssey

RePack

NEED FOR SPEED™ PAYBACK

3 сезон

9 сезон

Бесстыжие 9 сезон

Все сериалы

все сериалы на PB.wtf

RePack

FAR CRY 5
Ребята, катастрофически не хватает 1900р. для оплаты серверов за Октябрь (всвязи с блокировками трафик упал в 3 раза), 1-2р., выручайте.
  

Собака Баскервилей / Der Hund von Baskerville (Карел Ламач ) [1937, ужасы, драма, мелодрама, DVDRip] Любительский [одноголосый] pb.wtf

Собака Баскервилей через торрент pb.wtf

Размер: 1.47 GB | Добавлен: 3 года 1 мес. назад | Торрент скачан:5 раз
Скачать  

06-10-2016 16:32 Собака Баскервилей Скачать торрент  

Собака Баскервилей / Der Hund von Baskerville

Год выпуска: 1937
Страна: Германия
Жанр: ужасы, драма, мелодрама, криминал, детектив
Продолжительность: 01:18:44
Перевод: Любительский [одноголосый] - SATKUR
Cубтитры: русские - отдельно
Режиссер: Карел Ламач
В ролях: Петер Фосс (Lord Henry Baskerville), Фридрих Кайслер (Lord Charles Baskerville), Элис Брандт (Beryl Vendeleure), Bruno Güttner (Sherlock Holmes), Фриц Одемар (Dr. Watson), Фриц Расп (Barrymore), Лили Шёнборн-Анспах (Elisa - Frau Barrymore's), Эрих Понто (Stapleton), Эрнст Ротмунд (Dr. Mortimer), Гертруд Волле (Wirtin von Sherlock Holmes), Пауль Рекопф (Sträfling), Клаус Пол (Notar)
Описание:
Таинственный злодей строит козни против семейства Баскервиллей, используя старую легенду об ужасной собаке. На помощь приглашен известный сыщик Шерлок Холмс и его верный помощник, доктор Ватсон.
Рейтинг:

Качество: DVDRip
Формат: AVI
Видео: XviD, 640x480 (4:3), 2267 kbps, 25 fps, 0,295 bpp
Аудио №1: AC3 / 2.0 / 48 kHz / 192 kbps / - русский
Аудио №2: AC3 / 2.0 / 48 kHz / 192 kbps / - немецкий

General
Complete name : D:\торренты\Der Hund von Baskerville_(1937)_DVDRip_\Der Hund von Baskerville_(1937)_DVDRip_.avi
Format : AVI
Format/Info : Audio Video Interleave
File size : 1.47 GiB
Duration : 1 h 18 min
Overall bit rate : 2 666 kb/s
Movie name : Der Hund von Baskerville (1937)
Director : Carl Lamac
Genre : Crime, Drama, Horror
Writing application : VirtualDubMod 1.5.10.3 | www.virtualdub-fr.org || (build 2550/release)
Original source form/Name : Movie
Copyright : Ripped_by_rjhlb777
Comment : VO (SATKUR) + Original Ger

Video
ID : 0
Format : MPEG-4 Visual
Format profile : Advanced Simple@L5
Format settings, BVOP : 1
Format settings, QPel : No
Format settings, GMC : No warppoints
Format settings, Matrix : Default (MPEG)
Codec ID : XVID
Codec ID/Hint : XviD
Duration : 1 h 18 min
Bit rate : 2 267 kb/s
Width : 640 pixels
Height : 480 pixels
Display aspect ratio : 4:3
Frame rate : 25.000 FPS
Color space : YUV
Chroma subsampling : 4:2:0
Bit depth : 8 bits
Scan type : Progressive
Compression mode : Lossy
Bits/(Pixel*Frame) : 0.295
Stream size : 1.25 GiB (85%)
Writing library : XviD 67

Audio #1
ID : 1
Format : AC-3
Format/Info : Audio Coding 3
Mode extension : CM (complete main)
Format settings, Endianness : Big
Codec ID : 2000
Duration : 1 h 18 min
Bit rate mode : Constant
Bit rate : 192 kb/s
Channel(s) : 2 channels
Channel positions : Front: L R
Sampling rate : 48.0 kHz
Frame rate : 31.250 FPS (1536 spf)
Compression mode : Lossy
Stream size : 108 MiB (7%)
Alignment : Split accross interleaves
Interleave, duration : 40 ms (1.00 video frame)
Interleave, preload duration : 500 ms

Audio #2
ID : 2
Format : AC-3
Format/Info : Audio Coding 3
Mode extension : CM (complete main)
Format settings, Endianness : Big
Codec ID : 2000
Duration : 1 h 18 min
Bit rate mode : Constant
Bit rate : 192 kb/s
Channel(s) : 2 channels
Channel positions : Front: L R
Sampling rate : 48.0 kHz
Frame rate : 31.250 FPS (1536 spf)
Compression mode : Lossy
Stream size : 108 MiB (7%)
Alignment : Split accross interleaves
Interleave, duration : 40 ms (1.00 video frame)
Interleave, preload duration : 500 ms
pb.wtf



Скачать Собака Баскервилей через торрент http://i78.fastpic.ru/big/2016/1006/f1/31625e658008cf80d3d2047200695ff1.png Скачать фильм Собака Баскервилей через торрент бесплантно в хорошем качестве Описание: Таинственный злодей строит козни против семейства Баскервиллей, используя старую легенду об ужасной собаке. На помощь приглашен ... 5 10 1
Торрент: Зарегистрирован [2016-10-06 16:32] · скачан: 5 раз
Статус: √ проверено
Размер: 1.47 GB
Как cкачать? Как скачать Собака Баскервилей через торрент | qTorrent


>> Регистрируемся здесь <<






Отзывы и комментарии о схеме читаем и пишем здесь: ---> Отзывы и комментарии о схеме

Новые благодарочки в телеграм довольных пользователей:
скриншот   скриншот   скриншот   скриншот   скриншот
    Дорогой пользователь! Огромная просьба, поблагодарите релизера, оцените раздачу и оставьте свои комментарий, если Вы скачали Собака Баскервилей через торрент бесплатно! Внесите свою лепту в развитие PiratBit!
    Комментировать посты могут только пользователи прошедшие не сложную регистрацию
    Показать сообщения:    

    Собака Баскервилей через торрент
    Скачать бесплатно Собака Баскервилей
    Собака Баскервилей скачать торрент
    Собака Баскервилей смотреть онлайн
    Cкачать фильм Собака Баскервилей бесплатно
    Собака Баскервилей скачать торрент в хорошем качестве
    Собака Баскервилей смотреть онлайн бесплатно в хорошем качестве


    Вы не можете начинать темы
    Вы не можете отвечать на сообщения
    Вы не можете редактировать свои сообщения
    Вы не можете удалять свои сообщения
    Вы не можете голосовать в опросах
    Вы не можете прикреплять файлы к сообщениям
    Вы можете скачивать файлы