Мега распродажа FORZA HORIZON 4 ULTIMATE+ВСЕ DLC+ОНЛАЙН всего за 499р. 349 руб. (супер цена). Внимание количество ограничено!!!

Лицензия

30

iTunes

мы

iTunes

1

1 сезон

Чернобыль

1 сезон

Ральф против интернета

MVO

Покемон. Детектив Пикачу

8 сезон

Игра престолов

iTunes

1+1

ИГРА 18+

pack

ВАЖНО

!!Акция!!

Alien_RageХит недели

RePack

Resident Evil 21
pack

RePack

Metro:Exodus

!!Акция!!

Alien_Rage

RePack

fifa19

RePack

Assassins Creed: Odyssey

RePack

NEED FOR SPEED™ PAYBACK

3 сезон

9 сезон

Бесстыжие 9 сезон

Все сериалы

все сериалы на PB.wtf

RePack

FAR CRY 5
Ребята, катастрофически не хватает 2730р. для оплаты серверов за МАЙ (всвязи с блокировками трафик упал в 3 раза), 1-2р., выручайте.
  

Девушка по вызову / The Girlfriend Experience (Стивен Содерберг,2929 Productions) [2009 г., Драма,Эротика, HDRip, Профессиональный (двухголосый)] pb.wtf

Девушка по вызову через торрент pb.wtf

Размер: 1.41 GB | Добавлен: 2 года 8 мес. назад | Торрент скачан:82 раза
Скачать  

06-10-2016 20:35 Девушка по вызову Скачать торрент  

Девушка по вызову / The Girlfriend Experience #Посмотри кино вместе с тем, с кем ты спишь#
Год выпуска: 2009
Страна: США
Жанр: Драма,Эротика
Продолжительность: 01:13:48
Перевод: Профессиональный (двухголосый)
Субтитры: Русские (Внешние с лицензии)

Режиссер: Стивен Содерберг
Выпущено:2929 Productions

В ролях: Саша Грэй (Sasha Grey), Крис Сантос, Филип Эйтан, T. Colby Trane,
Питер Зиззо, Рон Стейн, Маршалл Гилман, Майкл Робертс, Vincent Dellacera,
Джим Кемпнер

Описание: Героиня фильма — высококлассная девушка по вызову, которая предлагает
своим клиентам больше, чем просто секс. Ее услуги стоят дорого, и позволить
себе проводить с ней время могут лишь состоятельные бизнесмены. Зато те, кто
попробовал, хотят встретиться с ней снова…

(Реклама отсутствует)


Качество: HDRip
Формат: AVI
Видео кодек: XviD
Аудио кодек: AC3
Видео: XviD, 720x304,v 25.000, fps,~1823 kbps avg
Аудио#1: Russian: AC3, 448 kb/s (6 ch) 48.0 КГц
Аудио#2: English: AC3, 448 kb/s (6 ch) 48.0 КГц




Общее
Полное имя : D:\Devushka.po.vyzovu.2009\Devushka.po.vyzovu.2009.avi
Формат : AVI
Формат/Информация : Audio Video Interleave
Размер файла : 1,41 Гбайт
Продолжительность : 1 ч. 13 м.
Общий поток : 2733 Кбит/сек
Название фильма : Девушка по вызову / The Girlfriend Experience
Режиссёр : zim2001
Программа кодирования : VirtualDubMod 1.5.10.2 (build 2540/release)
Авторское право : torrents.ru

Видео
Идентификатор : 0
Формат : MPEG-4 Visual
Профиль формата : Advanced Simple@L5
Параметр BVOP формата : 1
Параметр QPel формата : Нет
Параметр GMC формата : Без точки перехода
Параметр матрицы формата : Выборочная
Идентификатор кодека : XVID
Идентификатор кодека/Подсказка : XviD
Продолжительность : 1 ч. 13 м.
Битрейт : 1823 Кбит/сек
Ширина : 720 пикселей
Высота : 304 пикселя
Соотношение сторон : 2,35:1
Частота кадров : 25,000 кадров/сек
Частота кадров в оригинале : 23,976 кадра/сек
Цветовое пространство : YUV
Субдискретизация насыщенности : 4:2:0
Битовая глубина : 8 бит
Тип развёртки : Прогрессивная
Метод сжатия : С потерями
Бит/(Пиксели*Кадры) : 0.333
Размер потока : 962 Мбайт (67%)
Библиотека кодирования : XviD 1.2.1 (UTC 2008-12-04)

Аудио #1
Идентификатор : 1
Формат : AC-3
Формат/Информация : Audio Coding 3
Расширение режима : CM (complete main)
Параметр Endianness формата : Big
Идентификатор кодека : 2000
Продолжительность : 1 ч. 13 м.
Вид битрейта : Постоянный
Битрейт : 448 Кбит/сек
Каналы : 6 каналов
Расположение каналов : Front: L C R, Side: L R, LFE
Частота : 48,0 КГц
Частота кадров : 31,250 кадров/сек (1536 spf)
Метод сжатия : С потерями
Задержка видео : 3 с. 8 мс.
Размер потока : 236 Мбайт (16%)
Выравнивание : Разделение по промежуткам
Продолжительность промежутка : 40 мс. (1,00 видеокадр)
Время предзагрузки промежутка : 500 мс.

Аудио #2
Идентификатор : 2
Формат : AC-3
Формат/Информация : Audio Coding 3
Расширение режима : CM (complete main)
Параметр Endianness формата : Big
Идентификатор кодека : 2000
Продолжительность : 1 ч. 13 м.
Вид битрейта : Постоянный
Битрейт : 448 Кбит/сек
Каналы : 6 каналов
Расположение каналов : Front: L C R, Side: L R, LFE
Частота : 48,0 КГц
Частота кадров : 31,250 кадров/сек (1536 spf)
Метод сжатия : С потерями
Размер потока : 236 Мбайт (16%)
Выравнивание : Разделение по промежуткам
Продолжительность промежутка : 40 мс. (1,00 видеокадр)
Время предзагрузки промежутка : 500 мс.
скриншот  скриншот  скриншот  скриншот  скриншот  скриншот  скриншот  скриншот  
pb.wtf



Скачать Девушка по вызову через торрент http://emtrek.org/pictures/f95a9c4c3c3e8be8f307cfec7ed50ffc.gif Скачать фильм Девушка по вызову через торрент бесплантно в хорошем качестве Описание: Героиня фильма — высококлассная девушка по вызову, которая предлагаетсвоим клиентам больше, чем просто секс. Ее услуги стоят ... 8.7 10 7
Info! Золотая раздача, скачанное не засчитывается.
Торрент: Зарегистрирован [2016-10-06 20:38] · скачан: 82 раз
Статус: √ проверено
Размер: 1.41 GB
Как cкачать? Как скачать Девушка по вызову через торрент | qTorrent

% Раздел Тема Автор DL S | L
Зарубежные сериалы [ 6.81 GB ] Девушка по вызову / The Girlfriend Experience / Сезон: 1 / Серии 1-13 из 13 [2016 WEBRip-AVC) [NewStudio] GEKADOL Скачать
1 | 0
Зарубежные сериалы [ 18.3 GB ] Девушка по вызову / The Girlfriend Experience / Сезон: 2 / Серии: 1-14 из 14 [2017 WEBRip 1080p] MVO [NewStudio] bober100 Скачать
1 | 0
Зарубежные сериалы [ 5.09 GB ] Девушка по вызову / The Girlfriend Experience / Сезон: 2 / Серии: 1-14 из 14 [2017 WEB-DLRip] MVO [NewStudio] bober100 Скачать
1 | 0
Зарубежные сериалы [ 4.55 GB ] Девушка по вызову / The Girlfriend Experience / Сезон: 1 / Серии 1-13 из 13 [2016 HDTVRip] [MVO] killermax2013 Скачать
1 | 0
Зарубежные сериалы [ 7.57 GB ] Девушка по вызову / The Girlfriend Experience / Сезон: 2 / Серии 1-14 из 14 [2017 WEB-DL 720p) [NewStudio] GEKADOL Скачать
1 | 0
Зарубежные сериалы [ 2.41 GB ] Девушка по вызову / The Girlfriend Experience / Сезон: 1 / Серии 13 из 13 [2016 эротика WEBRip] [ColdFilm] montralfive Скачать
1 | 1
Зарубежные сериалы [ 5.15 GB ] Девушка по вызову / The Girlfriend Experience / Сезон: 1 / Серии 1-13 из 13 [2016 WEBRip] MVO BaibaKo MicroCharmelle Скачать
1 | 0


Последний раз редактировалось: DJASFUL (2016-10-06 22:15), всего редактировалось 2 раз(а)


>> Регистрируемся здесь <<






Отзывы и комментарии о схеме читаем и пишем здесь: ---> Отзывы и комментарии о схеме

Новые благодарочки в телеграм довольных пользователей:
скриншот   скриншот   скриншот   скриншот   скриншот

06-10-2016 20:49 Девушка по вызову Скачать торрент  

pb.wtf



    Дорогой пользователь! Огромная просьба, поблагодарите релизера, оцените раздачу и оставьте свои комментарий, если Вы скачали Девушка по вызову через торрент бесплатно! Внесите свою лепту в развитие PiratBit!
    Комментировать посты могут только пользователи прошедшие не сложную регистрацию
    Показать сообщения:    

    Девушка по вызову через торрент
    Скачать бесплатно Девушка по вызову
    Девушка по вызову скачать торрент
    Девушка по вызову смотреть онлайн
    Cкачать фильм Девушка по вызову бесплатно
    Девушка по вызову скачать торрент в хорошем качестве
    Девушка по вызову смотреть онлайн бесплатно в хорошем качестве


    Вы не можете начинать темы
    Вы не можете отвечать на сообщения
    Вы не можете редактировать свои сообщения
    Вы не можете удалять свои сообщения
    Вы не можете голосовать в опросах
    Вы не можете прикреплять файлы к сообщениям
    Вы можете скачивать файлы