>

7.4

iTunes

7.4

2 сезон

9.4

1 сезон

1

7.4

2 сезон

7.2

iTunes

6.0

MVO

13

6.1

iTunes

8.3

Пиратка

30

ULTIMATE

pack

9.9

Лицензия

ВАЖНО

ИГРА 18+

pack

7.3

RePack

MK11

7.7

RePack

jed

7.8

RePack

fifa19

8.5

RePack

RDR2

RePack

NEED FOR SPEED™ PAYBACK

1 сезон

9 сезон

Бесстыжие 9 сезон

Все сериалы

все сериалы на PB.wtf

RePack

FAR CRY 5

Anonymous, доброе утро, мы катастрофически не успеваем собрать деньги на оплату серверов, помогите нам пожалуйста 5,10,15р., для нас важна любая помощь . В качестве благодарности мы отключим Вам всю рекламу на сайте (укажите свой ник в строку Ваше имя)!

×
  
Magnet ссылка

Чёрный ангел / Kuro no tenshi Vol. 1 (Такаси Исии) [1998, боевик, триллер, драма, криминал, BDRip 720p by msltel] AVO pb.wtf

Чёрный ангел через торрент pb.wtf

Размер: 5.17 GB | Добавлен: 5 лет 3 мес. назад | Торрент скачан:11 раз
Смотреть онлайн Чёрный ангел | Скачать    Ребята, помогите собрать деньги на оплату серверов!!!

07-10-2016 12:37 Чёрный ангел Скачать торрент  

Название: Чёрный ангел
Оригинальное название: Kuro no tenshi Vol. 1
Год выпуска: 1998
Страна: Япония
Жанр: боевик, триллер, драма, криминал
Продолжительность: 01:46:31
Перевод: авторский

Режиссёр: Такаси Исии

В ролях: Риона Хазуки, Рейко Такашима, Джинпачи Незу, Киппэй Сиина, Миюки Оно, Йошиюки Ямагути, Хидео Морита, Синго Цуруми, Рен Осуги, Дайскэ Иидзима, Норико Хаями, Рейко Катаока, Рубен Арвизу, Боб Бучольц, Питер Дойл, Дороти Элиас-Фан, Ребекка Форстадт, Уэнди Ли, Дэйв Маллоу, Николь Прэсли, Филис Семплер, Лия Сарджент, Джошуа Сет, Стив Стейли, Даг Стоун, Дэн Уорен

Описание: На глазах шестилетней Икко, дочери босса якудзы, были зверски убиты её отец и мать. Она тоже должна была разделить судьбу родителей, но, благодаря таинственной женщине-киллеру по прозвищу «Чёрный ангел», Икко удается ускользнуть от убийц. Девочку переправляют в США, где она воспитывается под надзором американской якудзы. А когда ей исполняется 20 лет, она возвращается в Японию, чтобы отомстить убийцам своих родителей. Теперь уже её зовут «Черным ангелом»...



Качество: BDRip 720p Сравнение с исходником
Формат: MKV
Видео: MPEG-4 AVC, 6310 Kбит/с, 1280x720, 23,976 кадра/с
Аудио 1: русский, AC3, 192 kbps, 2 ch, 48 kHz [авторский, Антон Алексеев]
Аудио 2: японский, AC3, 448 kbps, 2 ch, 48 kHz [оригинал]
Субтитры: английские
Общее
Уникальный идентификатор : 223117541021210847731968002250452793280 (0xA7DAE0161742780C9476400DEFF077C0)
Полное имя : D:\Video\Чёрный ангел.1997.BDRip.720p.mkv
Формат : Matroska
Версия формата : Version 4 / Version 2
Размер файла : 5,17 Гбайт
Продолжительность : 1 ч. 46 м.
Общий поток : 6953 Кбит/сек
Дата кодирования : UTC 2016-10-07 05:24:23
Программа кодирования : mkvmerge v8.2.0 ('World of Adventure') 64bit
Библиотека кодирования : libebml v1.3.1 + libmatroska v1.4.2

Видео
Идентификатор : 1
Формат : AVC
Формат/Информация : Advanced Video Codec
Профиль формата : High@L4.1
Параметр CABAC формата : Да
Параметр ReFrames формата : 9 кадров
Идентификатор кодека : V_MPEG4/ISO/AVC
Продолжительность : 1 ч. 46 м.
Битрейт : 6310 Кбит/сек
Ширина : 1280 пикселей
Высота : 720 пикселей
Соотношение сторон : 16:9
Режим частоты кадров : Постоянный
Частота кадров : 23,976 (24000/1001) кадра/сек
Цветовое пространство : YUV
Субдискретизация насыщенности : 4:2:0
Битовая глубина : 8 бит
Тип развёртки : Прогрессивная
Бит/(Пиксели*Кадры) : 0.286
Размер потока : 4,70 Гбайт (91%)
Библиотека кодирования : x264 core 146 r2538 121396c
Настройки программы : cabac=1 / ref=9 / deblock=1:-3:-3 / analyse=0x3:0x113 / me=umh / subme=10 / psy=1 / psy_rd=1.00:0.15 / mixed_ref=1 / me_range=32 / chroma_me=1 / trellis=2 / 8x8dct=1 / cqm=0 / deadzone=21,11 / fast_pskip=1 / chroma_qp_offset=-3 / threads=6 / lookahead_threads=1 / sliced_threads=0 / nr=0 / decimate=1 / interlaced=0 / bluray_compat=0 / constrained_intra=0 / bframes=7 / b_pyramid=2 / b_adapt=2 / b_bias=0 / direct=1 / weightb=1 / open_gop=0 / weightp=2 / keyint=230 / keyint_min=23 / scenecut=40 / intra_refresh=0 / rc_lookahead=40 / rc=crf / mbtree=0 / crf=20.0 / qcomp=0.60 / qpmin=0 / qpmax=69 / qpstep=4 / vbv_maxrate=40000 / vbv_bufsize=50000 / crf_max=0.0 / nal_hrd=none / filler=0 / ip_ratio=1.40 / pb_ratio=1.30 / aq=1:1.00
Язык : Japanese
Default : Да
Forced : Нет

Аудио #1
Идентификатор : 2
Формат : AC-3
Формат/Информация : Audio Coding 3
Расширение режима : CM (complete main)
Параметр Endianness формата : Big
Идентификатор кодека : A_AC3
Продолжительность : 1 ч. 46 м.
Вид битрейта : Постоянный
Битрейт : 192 Кбит/сек
Каналы : 2 канала
Расположение каналов : Front: L R
Частота : 48,0 КГц
Частота кадров : 31,250 кадров/сек (1536 spf)
Метод сжатия : С потерями
Размер потока : 146 Мбайт (3%)
Заголовок : AVO (Антон Алексеев)
Язык : Russian
Default : Да
Forced : Нет

Аудио #2
Идентификатор : 3
Формат : AC-3
Формат/Информация : Audio Coding 3
Расширение режима : CM (complete main)
Параметр Endianness формата : Big
Идентификатор кодека : A_AC3
Продолжительность : 1 ч. 46 м.
Вид битрейта : Постоянный
Битрейт : 448 Кбит/сек
Каналы : 2 канала
Расположение каналов : Front: L R
Частота : 48,0 КГц
Частота кадров : 31,250 кадров/сек (1536 spf)
Метод сжатия : С потерями
Размер потока : 341 Мбайт (6%)
Заголовок : original
Язык : Japanese
Default : Нет
Forced : Нет

Текст
Идентификатор : 4
Формат : UTF-8
Идентификатор кодека : S_TEXT/UTF8
Идентификатор кодека/Информация : UTF-8 Plain Text
Продолжительность : 1 ч. 45 м.
Битрейт : 20 бит/сек
Count of elements : 598
Размер потока : 15,5 Кбайт (0%)
Заголовок : английские
Язык : English
Default : Нет
Forced : Нет
pb.wtf



Скачать Чёрный ангел через торрент http://s56.radikal.ru/i154/1610/14/91882e1aec2f.jpg Скачать, смотреть онлайн Чёрный ангел бесплантно в хорошем качестве Описание: На глазах шестилетней Икко, дочери босса якудзы, были зверски убиты её отец и мать. Она тоже должна была разделить судьбу ... 10 10 3
Info! Золотая раздача, скачанное не засчитывается.
Торрент: Зарегистрирован [2016-10-07 12:37] · скачан: 11 раз
Статус: √ проверено
Размер: 5.17 GB
Как cкачать? Как скачать Чёрный ангел через торрент | UTorrent

% Раздел Тема Автор DL S | L
Фильмы с авторской озвучкой [ 14.1 GB ] Чёрный ангел / Kuro no tenshi Vol. 1 [1998 BDRip 1080p by msltel] AVO msltel Скачать
1 | 0

28-11-2019 20:33  

Отключить всю рекламу на сайте

    Дорогой пользователь! Огромная просьба, поблагодарите релизера, оцените раздачу и оставьте свои комментарий, если Вы скачали Чёрный ангел через торрент бесплатно!
    Комментировать посты могут только пользователи прошедшие не сложную регистрацию
    Показать сообщения:    

    Чёрный ангел через торрент
    Скачать бесплатно Чёрный ангел
    Чёрный ангел скачать торрент
    Чёрный ангел смотреть онлайн
    Cкачать фильм Чёрный ангел бесплатно
    Чёрный ангел скачать торрент в хорошем качестве
    Чёрный ангел смотреть онлайн бесплатно в хорошем качестве


    Вы не можете начинать темы
    Вы не можете отвечать на сообщения
    Вы не можете редактировать свои сообщения
    Вы не можете удалять свои сообщения
    Вы не можете голосовать в опросах
    Вы не можете прикреплять файлы к сообщениям
    Вы можете скачивать файлы