Ссылка на приватное зеркало всего за 1$. Внимание количество ограничено!!!

iTunes

1+1

iTunes

мы

WEB-DL

1

iTunes

Чернобыль

iTunes

Ральф против интернета

Лицензия

ПШазам

Лицензия

Оно 2

Лицензия

30
pack

Вам бонус

ВАЖНО

!!Акция!!

Alien_RageХит недели

RePack

Resident Evil 21

ИГРА 18+

pack

RePack

jed

!!Акция!!

Alien_Rage

RePack

fifa19

RePack

Assassins Creed: Odyssey

RePack

NEED FOR SPEED™ PAYBACK

3 сезон

9 сезон

Бесстыжие 9 сезон

Все сериалы

все сериалы на PB.wtf

RePack

FAR CRY 5
Ребята, катастрофически не хватает 1900р. для оплаты серверов за Октябрь (всвязи с блокировками трафик упал в 3 раза), 1-2р., выручайте.
  

Осенние свадьбы (Борис Яшин ) [1967, драма, TVRip] pb.wtf

Осенние свадьбы через торрент pb.wtf

Размер: 1.22 GB | Добавлен: 3 года 2 мес. назад | Торрент скачан:7 раз
Скачать  

07-10-2016 14:45 Осенние свадьбы Скачать торрент  

Осенние свадьбы

Год выпуска: 1967
Страна: СССР
Жанр: драма

Продолжительность: 01:12:43
Перевод: Не требуется [Русский]
Режиссер: Борис Яшин
В ролях: Валентина Теличкина (Наташа), Владимир Сафронов (Михаил Найда), Станислав Бородокин (Юра), Константин Сорокин (бухгалтер), Инна Кондратьева (Ольга), Евгений Перов (председатель), Екатерина Градова, Петр Любешкин (младший сержант милиции), И. Кривенко, Ю. Кривич, Василий Куприянов, Ф. Наконечный
Описание:
Беременная деревенская женщина ходит по учреждениям, добиваясь, чтобы ее расписали с отцом будущего ребенка, трагически погибшим от взрыва мины, оставшейся на колхозном поле со времен войны...

Качество: TVRip
Формат: AVI
Видео: XviD, 720x544 (4:3), 2202 kbps, 25 fps, 0,225 bpp
Аудио: MP3 / 2.0 / 48 kHz / 192 kbps /

General
Complete name Осенние свадьбы (1967) TVRip.avi
Format : AVI
Format/Info : Audio Video Interleave
File size : 1.22 GiB
Duration : 1 h 12 min
Overall bit rate : 2 404 kb/s
Writing application : VirtualDubMod 1.5.10.2 (build 2540/release)
Writing library : VirtualDub build 35491/release
Comment : Rip by iriston

Video
ID : 0
Format : MPEG-4 Visual
Format profile : Advanced Simple@L5
Format settings, BVOP : 2
Format settings, QPel : No
Format settings, GMC : No warppoints
Format settings, Matrix : Default (H.263)
Muxing mode : Packed bitstream
Codec ID : XVID
Codec ID/Hint : XviD
Duration : 1 h 12 min
Bit rate : 2 203 kb/s
Width : 720 pixels
Height : 544 pixels
Display aspect ratio : 4:3
Frame rate : 25.000 FPS
Color space : YUV
Chroma subsampling : 4:2:0
Bit depth : 8 bits
Scan type : Progressive
Compression mode : Lossy
Bits/(Pixel*Frame) : 0.225
Stream size : 1.12 GiB (92%)
Writing library : XviD 65

Audio
ID : 1
Format : MPEG Audio
Format version : Version 1
Format profile : Layer 3
Codec ID : 55
Codec ID/Hint : MP3
Duration : 1 h 12 min
Bit rate mode : Constant
Bit rate : 192 kb/s
Channel(s) : 2 channels
Sampling rate : 48.0 kHz
Compression mode : Lossy
Stream size : 99.9 MiB (8%)
Alignment : Aligned on interleaves
Interleave, duration : 40 ms (1.00 video frame)
Interleave, preload duration : 504 ms
Writing library : LAME3.98r
Encoding settings : -m s -V 4 -q 2 -lowpass 18.6 -b 192
Скриншоты:
pb.wtf



Скачать Осенние свадьбы через торрент http://i4.imageban.ru/out/2016/10/07/3a6e104b8d617340430535ff8b4d8502.jpg Скачать фильм Осенние свадьбы через торрент бесплантно в хорошем качестве Описание: Беременная деревенская женщина ходит по учреждениям, добиваясь, чтобы ее расписали с отцом будущего ребенка, трагически погибшим ... 10 10 1
Info! Серебряная раздача, засчитывается только 50% скачанного.
Торрент: Зарегистрирован [2016-10-07 14:45] · скачан: 7 раз
Статус: √ проверено
Размер: 1.22 GB
Как cкачать? Как скачать Осенние свадьбы через торрент | qTorrent

% Раздел Тема Автор DL S | L
Футажи [ 4.3 GB ] 3dFon - Свадьба - Осень The_SAW Скачать
1 | 0

28-11-2019 20:33  

Отключить всю рекламу на сайте

    Дорогой пользователь! Огромная просьба, поблагодарите релизера, оцените раздачу и оставьте свои комментарий, если Вы скачали Осенние свадьбы через торрент бесплатно! Внесите свою лепту в развитие PiratBit!
    Комментировать посты могут только пользователи прошедшие не сложную регистрацию
    Показать сообщения:    

    Осенние свадьбы через торрент
    Скачать бесплатно Осенние свадьбы
    Осенние свадьбы скачать торрент
    Осенние свадьбы смотреть онлайн
    Cкачать фильм Осенние свадьбы бесплатно
    Осенние свадьбы скачать торрент в хорошем качестве
    Осенние свадьбы смотреть онлайн бесплатно в хорошем качестве


    Вы не можете начинать темы
    Вы не можете отвечать на сообщения
    Вы не можете редактировать свои сообщения
    Вы не можете удалять свои сообщения
    Вы не можете голосовать в опросах
    Вы не можете прикреплять файлы к сообщениям
    Вы можете скачивать файлы