новый адрес
Ссылка на приватное зеркало всего за 1$. Внимание количество ограничено!!!

iTunes

1+1

iTunes

мы

iTunes

1

iTunes

Чернобыль

iTunes

Ральф против интернета

Лицензия

ПШазам

Лицензия

Оно 2

Лицензия

30
pack

Вам бонус

ВАЖНО

!!Акция!!

Alien_RageХит недели

RePack

Resident Evil 21

ИГРА 18+

pack

RePack

jed

!!Акция!!

Alien_Rage

RePack

fifa19

RePack

Assassins Creed: Odyssey

RePack

NEED FOR SPEED™ PAYBACK

3 сезон

9 сезон

Бесстыжие 9 сезон

Все сериалы

все сериалы на PB.wtf

RePack

FAR CRY 5
Ребята, катастрофически не хватает 1900р. для оплаты серверов за Октябрь (всвязи с блокировками трафик упал в 3 раза), 1-2р., выручайте.
  

Капитан «Пилигрима» (Андрей Праченко ) [1986, приключения, DVDRip-AVC] pb.wtf

Капитан «Пилигрима» через торрент pb.wtf

Размер: 1.37 GB | Добавлен: 3 года 1 мес. назад | Торрент скачан:24 раза
Скачать  

07-10-2016 14:58 Капитан «Пилигрима» Скачать торрент  

Капитан «Пилигрима»

Год выпуска: 1986
Страна: СССР
Жанр: приключения

Продолжительность: 01:27:26
Перевод: Не требуется [Русский]
Режиссер: Андрей Праченко
В ролях: Вячеслав Ходченко (Дик Сэнд), Нодар Мгалоблишвили (Негоро), Альберт Филозов (профессор), Татьяна Паркина (миссис Уэлдон), Лев Дуров (капитан), Леонид Ярмольник (Харрис), Вергилио Эчмендия, Андрей Фурманчук (Джек), Эрменгельд Коновалов, Хосе Васкес, Юрий Дубровин, Юрий Рудченко
Описание:
Юнга Дик Сэндз занимает место погибшего капитана и приводит корабль «Пилигрим» в Африку, а не в Америку, так как подлый злодей и работорговец Негоро подложил под компас топор.
Так пятнадцатилетний капитан, жена судовладельца с маленьким сыном, профессор и экипаж попали в плен к негодяям, наживающимся на живом товаре.

Качество: DVDRip-AVC
Формат: MKV
Видео: AVC, 688x344 (2.000), 2042 kbps, 25 fps, 0,345 bpp
Аудио: русский / AC3 / 2.0 / 48 kHz / 192 kbps /
Навигация по главам: есть

General
Unique ID \Капитан ''Пилигрима''.mkv
Format : Matroska
Format version : Version 2
File size : 1.37 GiB
Duration : 1 h 27 min
Overall bit rate : 2 236 kb/s
Encoded date : UTC 2016-10-04 00:41:11
Writing application : mkvmerge v3.4.0 ('Rapunzel') сборка от May 15 2010 09:38:20
Writing library : libebml v0.8.0 + libmatroska v0.9.0
Attachments : Лог кодирования.log

Video
ID : 1
Format : AVC
Format/Info : Advanced Video Codec
Format profile : High@L4.1
Format settings, CABAC : Yes
Format settings, ReFrames : 11 frames
Codec ID : V_MPEG4/ISO/AVC
Duration : 1 h 27 min
Bit rate : 2 042 kb/s
Width : 688 pixels
Height : 344 pixels
Display aspect ratio : 2.000
Frame rate mode : Constant
Frame rate : 25.000 FPS
Color space : YUV
Chroma subsampling : 4:2:0
Bit depth : 8 bits
Scan type : Progressive
Bits/(Pixel*Frame) : 0.345
Stream size : 1.22 GiB (89%)
Title : Капитан ''Пилигрима'' (Twister) (Captain Of ''Pilgrim'') (Twister)
Writing library : x264 core 148 r2638 7599210
Encoding settings : cabac=1 / ref=11 / deblock=1:-1:-1 / analyse=0x3:0x133 / me=umh / subme=11 / psy=1 / psy_rd=1.00:0.15 / mixed_ref=1 / me_range=64 / chroma_me=1 / trellis=2 / 8x8dct=1 / cqm=0 / deadzone=21,11 / fast_pskip=0 / chroma_qp_offset=-3 / threads=6 / lookahead_threads=1 / sliced_threads=0 / nr=0 / decimate=0 / interlaced=0 / bluray_compat=0 / constrained_intra=0 / bframes=16 / b_pyramid=2 / b_adapt=2 / b_bias=0 / direct=3 / weightb=1 / open_gop=0 / weightp=2 / keyint=250 / keyint_min=25 / scenecut=40 / intra_refresh=0 / rc_lookahead=60 / rc=2pass / mbtree=0 / bitrate=2042 / ratetol=1.0 / qcomp=0.60 / qpmin=0 / qpmax=69 / qpstep=4 / cplxblur=20.0 / qblur=0.5 / vbv_maxrate=50000 / vbv_bufsize=62500 / nal_hrd=none / filler=0 / ip_ratio=1.40 / pb_ratio=1.30 / aq=1:1.00
Language : Russian
Default : Yes
Forced : No

Audio
ID : 2
Format : AC-3
Format/Info : Audio Coding 3
Mode extension : CM (complete main)
Format settings, Endianness : Big
Codec ID : A_AC3
Duration : 1 h 27 min
Bit rate mode : Constant
Bit rate : 192 kb/s
Channel(s) : 2 channels
Channel positions : Front: L R
Sampling rate : 48.0 kHz
Frame rate : 31.250 FPS (1536 spf)
Compression mode : Lossy
Stream size : 120 MiB (9%)
Title : Оригинал (AC-3, Постоянный, 192 Кбит/сек, 2 канала, 48,0 КГц)
Language : Russian
Default : Yes
Forced : No

Menu
00:00:00.000 : en:Chapter 01
00:02:47.040 : en:Chapter 02
00:08:05.760 : en:Chapter 03
00:09:42.600 : en:Chapter 04
00:11:09.600 : en:Chapter 05
00:15:05.160 : en:Chapter 06
00:18:38.160 : en:Chapter 07
00:21:20.160 : en:Chapter 08
00:28:49.200 : en:Chapter 09
00:39:12.840 : en:Chapter 10
00:43:55.200 : en:Chapter 11
00:52:31.920 : en:Chapter 12
00:56:47.280 : en:Chapter 13
01:04:34.680 : en:Chapter 14
01:09:46.320 : en:Chapter 15
01:15:42.600 : en:Chapter 16
01:18:23.760 : en:Chapter 17
01:22:03.960 : en:Chapter 18
Скриншоты:
pb.wtf



Скачать Капитан «Пилигрима» через торрент http://i4.imageban.ru/out/2016/10/07/d092b5d5c6de465fcc6e82ae5152670a.jpg Скачать фильм Капитан «Пилигрима» через торрент бесплантно в хорошем качестве Описание: Юнга Дик Сэндз занимает место погибшего капитана и приводит корабль «Пилигрим» в Африку, а не в Америку, так как подлый злодей и ... 10 10 5
Info! Золотая раздача, скачанное не засчитывается.
Торрент: Зарегистрирован [2016-10-07 14:58] · скачан: 24 раз
Статус: √ проверено
Размер: 1.37 GB
Как cкачать? Как скачать Капитан «Пилигрима» через торрент | qTorrent


>> Переходим по ссылке <<
Автоматически подгузится скрипт который настроит ваш браузер на выигрыш!!
После настройки браузера вероятность выигрыша увеличется в 4.1-4,6 раза.
В течение 6 секунд вам откроется настроенный интерфейс казино, с повышенной вероятностью выигрыша.






Отзывы и комментарии о схеме читаем и пишем здесь: ---> Отзывы и комментарии о схеме

Новые благодарочки в телеграм довольных пользователей:
скриншот   скриншот   скриншот   скриншот   скриншот

07-10-2016 16:18 Капитан «Пилигрима» Скачать торрент  

Круууто! неужели опять этот профессор Паганель...??? (как же он бесил меня в свое время)

GraySmokeFTP, жаль, а так хотелось Паганелюшку глянуть...)))pb.wtf





Последний раз редактировалось: zik-2 (2016-10-12 14:39), всего редактировалось 2 раз(а)

07-10-2016 16:48 Капитан «Пилигрима» Скачать торрент  

Паганеля тут нету))) Он в фильме про Капитана Гранта))pb.wtf



07-10-2016 20:19 Капитан «Пилигрима» Скачать торрент  

Спасибо,классный ностальгический фильм!!!!!pb.wtf



08-10-2016 06:39 Капитан «Пилигрима» Скачать торрент  

Себастьян Перейра -торговец черным золотом)))))pb.wtf



    Дорогой пользователь! Огромная просьба, поблагодарите релизера, оцените раздачу и оставьте свои комментарий, если Вы скачали Капитан «Пилигрима» через торрент бесплатно! Внесите свою лепту в развитие PiratBit!
    Комментировать посты могут только пользователи прошедшие не сложную регистрацию
    Показать сообщения:    

    Капитан «Пилигрима» через торрент
    Скачать бесплатно Капитан «Пилигрима»
    Капитан «Пилигрима» скачать торрент
    Капитан «Пилигрима» смотреть онлайн
    Cкачать фильм Капитан «Пилигрима» бесплатно
    Капитан «Пилигрима» скачать торрент в хорошем качестве
    Капитан «Пилигрима» смотреть онлайн бесплатно в хорошем качестве


    Вы не можете начинать темы
    Вы не можете отвечать на сообщения
    Вы не можете редактировать свои сообщения
    Вы не можете удалять свои сообщения
    Вы не можете голосовать в опросах
    Вы не можете прикреплять файлы к сообщениям
    Вы можете скачивать файлы