Достать ножи: Стеклянная луковица

MVO

Добыча

Дубляж

Уэнсдэй

1 сезон

Тор

Дубляж

13 клиническая

1 сезон

Жестокая ночь

MVO

Одни из нас

1 сезон

Deluxe

pack

Рекомендуем

30

Пиратка

ВАЖНО

ВАЖНО

Ghostwire

Пиратка

jed

RePack

nioh2

RePack

RDR2

RePack

NEED FOR SPEED™ PAYBACK

RePack

скачать торрент

Кинопоиск HD

Острые козырьки 6 сезон

6 сезон

FAR CRY 6

RePack

скачать торрент

Лицензия

скачать торрент

MVO

1

1 сезон

скачать торрент

1 сезон

скачать торрент

Лицензия

  

Крупный выигрыш (Альберт Мкртчян ) [1980, комедия, DVDRip]

Крупный выигрыш через торрент pb.wtf

Размер: 1.37 GB | Добавлен: 6 лет 3 мес. назад | Торрент скачан:43 раза
Смотреть онлайн | Скачать | Поддержите нас   

07-10-2016 15:11 Крупный выигрыш Скачать торрент  

Крупный выигрыш

Год выпуска: 1980
Страна: СССР
Жанр: комедия

Продолжительность: 01:18:27
Перевод: Не требуется [Русский]
Режиссер: Альберт Мкртчян
В ролях: Фрунзик Мкртчян (Гарник), Люся Оганесян (Ашхен), Леонард Саркисов (Хачик), Генрих Алавердян (Мамикон), Нерсес Оганесян (Шекоян), Шаум Казарян (Сержик), Гарегин Асланян, Карен Джанибекян, Мисаил Галоян, Артуш Гедакян, Арщавир Казарян, Аветик Джрагацпанян
Описание:
Рабочий-крановщик выиграл в лотерею автомобиль. И сразу же жизнь его наполнилась всевозможными испытаниями...

Качество: DVDRip
Формат: AVI
Видео: DivX 5, 704x528 (4:3), 2292 kbps, 25 fps, 0,247 bpp
Аудио: AC3 / 2.0 / 48 kHz / 192 kbps /
Семпл
General
Complete name Krupniy_viigrisch_DVDRip.avi
Format : AVI
Format/Info : Audio Video Interleave
File size : 1.37 GiB
Duration : 1 h 18 min
Overall bit rate : 2 495 kb/s
Writing application : VirtualDubModRus 1.5.10.2 (build 2542/release)
Writing library : VirtualDubMod build 2542/release

Video
ID : 0
Format : MPEG-4 Visual
Format settings, BVOP : 1
Format settings, QPel : No
Format settings, GMC : No warppoints
Format settings, Matrix : Default (H.263)
Muxing mode : Packed bitstream
Codec ID : DX50
Codec ID/Hint : DivX 5
Duration : 1 h 18 min
Bit rate : 2 293 kb/s
Width : 704 pixels
Height : 528 pixels
Display aspect ratio : 4:3
Frame rate : 25.000 FPS
Color space : YUV
Chroma subsampling : 4:2:0
Bit depth : 8 bits
Scan type : Progressive
Compression mode : Lossy
Bits/(Pixel*Frame) : 0.247
Stream size : 1.26 GiB (92%)
Writing library : DivX 6.8.3-6.8.4 (UTC 2008-06-07)

Audio
ID : 1
Format : AC-3
Format/Info : Audio Coding 3
Mode extension : CM (complete main)
Format settings, Endianness : Big
Codec ID : 2000
Duration : 1 h 18 min
Bit rate mode : Constant
Bit rate : 192 kb/s
Channel(s) : 2 channels
Channel positions : Front: L R
Sampling rate : 48.0 kHz
Frame rate : 31.250 FPS (1536 spf)
Compression mode : Lossy
Stream size : 108 MiB (8%)
Alignment : Aligned on interleaves
Interleave, duration : 40 ms (1.00 video frame)
Interleave, preload duration : 512 ms
Скриншоты:



Скачать Крупный выигрыш через торрент http://i2-imageban-ru.translate.goog/out/2016/10/07/8135b3b822e5648078e2ec3c9117c4c6.jpg Скачать, смотреть онлайн Крупный выигрыш бесплантно в хорошем качестве Описание: Рабочий-крановщик выиграл в лотерею автомобиль. И сразу же жизнь его наполнилась всевозможными ... 10 10 9
Info! Золотая раздача, скачанное не засчитывается.
Торрент: Зарегистрирован [2016-10-07 15:11] · скачан: 43 раз
Статус: √ проверено
Размер: 1.37 GB
Как cкачать? Как скачать Крупный выигрыш через торрент | UTorrent

28-11-2019 20:33  


Отключить вcю реклaмy на сайте, в т.ч. и в плеере онлайн просмотра!

07-10-2016 21:22 Крупный выигрыш Скачать торрент  




    Дорогой пользователь! Огромная просьба, поблагодарите релизера, оцените раздачу и оставьте свои комментарий, если Вы скачали Крупный выигрыш через торрент бесплатно!!
    Комментировать посты могут только пользователи прошедшие не сложную регистрацию
    Показать сообщения:    


    Крупный выигрыш через торрент
    Скачать бесплатно Крупный выигрыш
    Крупный выигрыш скачать торрент
    Крупный выигрыш смотреть онлайн
    Cкачать фильм Крупный выигрыш бесплатно
    Крупный выигрыш скачать торрент в хорошем качестве
    Крупный выигрыш смотреть онлайн бесплатно в хорошем качестве
    Вы не можете начинать темы
    Вы не можете отвечать на сообщения
    Вы не можете редактировать свои сообщения
    Вы не можете удалять свои сообщения
    Вы не можете голосовать в опросах
    Вы не можете прикреплять файлы к сообщениям
    Вы можете скачивать файлы
    Крупный выигрыш [1980, комедия, DVDRip] смотреть онлайн, скачать торрент picoco.icu