новый адрес пиратбит piratbit
Мега распродажа FORZA HORIZON 4 ULTIMATE+ВСЕ DLC+ОНЛАЙН всего за 499р. 349 руб. (супер цена). Внимание количество ограничено!!!

iTunes

1+1

iTunes

мы

iTunes

1

iTunes

Чернобыль

iTunes

Ральф против интернета

Лицензия

ПШазам

Лицензия

Игра престолов

Лицензия

30
pack

ВАЖНО

!!Акция!!

Alien_RageХит недели

RePack

Resident Evil 21

ИГРА 18+

pack

RePack

Metro:Exodus

!!Акция!!

Alien_Rage

RePack

fifa19

RePack

Assassins Creed: Odyssey

RePack

NEED FOR SPEED™ PAYBACK

3 сезон

9 сезон

Бесстыжие 9 сезон

Все сериалы

все сериалы на PB.wtf

RePack

FAR CRY 5
Ребята, катастрофически не хватает 1900р. для оплаты серверов за Октябрь (всвязи с блокировками трафик упал в 3 раза), 1-2р., выручайте.
  

Граница на замке (Василий Журавлев ) [1937, приключения, SATRip] pb.wtf

Граница на замке через торрент pb.wtf

Размер: 1.09 GB | Добавлен: 3 года 1 мес. назад | Торрент скачан:8 раз
Скачать  

07-10-2016 15:52 Граница на замке Скачать торрент  

Граница на замке

Год выпуска: 1937
Страна: СССР
Жанр: приключения
Продолжительность: 01:11:23
Перевод: Не требуется [Русский]
Режиссер: Василий Журавлев
В ролях: Константин Нассонов, Семен Свашенко, Константин Градополов, Федор Селезнев (Федор Орехов), Виктор Аркасов, М. Викторов, Евгения Мельникова, Павел Массальский, Вячеслав Новиков (Бирюк), Иван Москвин, Константин Тыртов, Михаил Гродский («Иван Степанович Тимофеев»)
Описание:
На территорию Советского Союза переброшен диверсант в сопровождении охраны. Пограничники вылавливают большую часть нарушителей. Лишь диверсанту и его помощнику удается бежать...

Качество: SATRip
Формат: AVI
Видео: XviD, 704x544 (1.294), 2042 kbps, 25 fps, 0,213 bpp
Аудио: MP3 / 2.0 / 48 kHz / 128 kbps /

General
Complete name Граница на замке (1937) SATR.avi
Format : AVI
Format/Info : Audio Video Interleave
File size : 1.09 GiB
Duration : 1 h 11 min
Overall bit rate : 2 181 kb/s
Writing library : VirtualDub build 35576/release

Video
ID : 0
Format : MPEG-4 Visual
Format profile : Advanced Simple@L5
Format settings, BVOP : 2
Format settings, QPel : No
Format settings, GMC : No warppoints
Format settings, Matrix : Default (H.263)
Codec ID : XVID
Codec ID/Hint : XviD
Duration : 1 h 11 min
Bit rate : 2 043 kb/s
Width : 704 pixels
Height : 544 pixels
Display aspect ratio : 1.294
Frame rate : 25.000 FPS
Color space : YUV
Chroma subsampling : 4:2:0
Bit depth : 8 bits
Scan type : Progressive
Compression mode : Lossy
Bits/(Pixel*Frame) : 0.213
Stream size : 1.02 GiB (94%)
Writing library : XviD 73

Audio
ID : 1
Format : MPEG Audio
Format version : Version 1
Format profile : Layer 3
Mode : Joint stereo
Mode extension : MS Stereo
Codec ID : 55
Codec ID/Hint : MP3
Duration : 1 h 11 min
Bit rate mode : Constant
Bit rate : 128 kb/s
Channel(s) : 2 channels
Sampling rate : 48.0 kHz
Compression mode : Lossy
Delay relative to video : 100 ms
Stream size : 65.4 MiB (6%)
Alignment : Split accross interleaves
Interleave, duration : 40 ms (1.00 video frame)
Interleave, preload duration : 500 ms
Скриншоты:
pb.wtf



Скачать Граница на замке через торрент http://i2.imageban.ru/out/2016/10/07/b84cca73311dfa49b4d36d38853b1725.jpg Скачать фильм Граница на замке через торрент бесплантно в хорошем качестве Описание: На территорию Советского Союза переброшен диверсант в сопровождении охраны. Пограничники вылавливают большую часть нарушителей. ... 10 10 4
Info! Золотая раздача, скачанное не засчитывается.
Торрент: Зарегистрирован [2016-10-07 15:52] · скачан: 8 раз
Статус: √ проверено
Размер: 1.09 GB
Как cкачать? Как скачать Граница на замке через торрент | qTorrent


>> Регистрируемся здесь <<






Отзывы и комментарии о схеме читаем и пишем здесь: ---> Отзывы и комментарии о схеме

Новые благодарочки в телеграм довольных пользователей:
скриншот   скриншот   скриншот   скриншот   скриншот
    Дорогой пользователь! Огромная просьба, поблагодарите релизера, оцените раздачу и оставьте свои комментарий, если Вы скачали Граница на замке через торрент бесплатно! Внесите свою лепту в развитие PiratBit!
    Комментировать посты могут только пользователи прошедшие не сложную регистрацию
    Показать сообщения:    

    Граница на замке через торрент
    Скачать бесплатно Граница на замке
    Граница на замке скачать торрент
    Граница на замке смотреть онлайн
    Cкачать фильм Граница на замке бесплатно
    Граница на замке скачать торрент в хорошем качестве
    Граница на замке смотреть онлайн бесплатно в хорошем качестве


    Вы не можете начинать темы
    Вы не можете отвечать на сообщения
    Вы не можете редактировать свои сообщения
    Вы не можете удалять свои сообщения
    Вы не можете голосовать в опросах
    Вы не можете прикреплять файлы к сообщениям
    Вы можете скачивать файлы