новый адрес
Ссылка на приватное зеркало всего за 1$. Внимание количество ограничено!!!

iTunes

1+1

iTunes

мы

iTunes

1

iTunes

Чернобыль

iTunes

Ральф против интернета

Лицензия

ПШазам

Лицензия

Оно 2

Лицензия

30
pack

Вам бонус

ВАЖНО

!!Акция!!

Alien_RageХит недели

RePack

Resident Evil 21

ИГРА 18+

pack

RePack

jed

!!Акция!!

Alien_Rage

RePack

fifa19

RePack

Assassins Creed: Odyssey

RePack

NEED FOR SPEED™ PAYBACK

3 сезон

9 сезон

Бесстыжие 9 сезон

Все сериалы

все сериалы на PB.wtf

RePack

FAR CRY 5
Ребята, катастрофически не хватает 1900р. для оплаты серверов за Октябрь (всвязи с блокировками трафик упал в 3 раза), 1-2р., выручайте.
  

Полеты во сне и наяву (Роман Балаян ) [1982, драма, DVDRip-AVC] pb.wtf

Полеты во сне и наяву через торрент pb.wtf

Размер: 1.27 GB | Добавлен: 3 года 1 мес. назад | Торрент скачан:7 раз
Скачать  

07-10-2016 19:31 Полеты во сне и наяву Скачать торрент  

Полеты во сне и наяву

Год выпуска: 1982
Страна: СССР
Жанр: драма

Продолжительность: 01:26:12
Перевод: Не требуется [Русский]
Режиссер: Роман Балаян
В ролях: Олег Янковский (Сергей Макаров), Олег Табаков (Николай Павлович), Людмила Гурченко (Лариса Юрьевна), Елена Костина (Алиса), Людмила Зорина (Наташа Макарова), Александр Адабашьян (скульптор), Олег Меньшиков (друг Алисы), Любовь Руднева (Светлана), Людмила Иванова (Нина Сергеевна), Никита Михалков (режиссёр), Елена Черняк (стрелочница), Алена Одинокова (Маша)
Описание:
Накануне своего сорокалетия герой фильма пытается подвести итоги прожитых лет. Увы: он подводит их, а они подводят его. Ничто не приносит ему удовлетворения и счастья: ни любящая жена, ни юная любовница, ни друзья, ни работа...

Качество: DVDRip-AVC
Формат: MKV
Видео: AVC, 702x526 (4:3), 1870 kbps, 25 fps, 0,203 bpp
Аудио: русский / AC3 / 2.0 / 48 kHz / 192 kbps /

General
Unique ID Полеты во сне и наяву.1982.mkv
Format : Matroska
Format version : Version 4 / Version 2
File size : 1.27 GiB
Duration : 1 h 26 min
Overall bit rate : 2 104 kb/s
Movie name : Release for Topmost
Encoded date : UTC 2016-08-24 20:42:29
Writing application : mkvmerge v6.2.0 ('Promised Land') built on Apr 28 2013 12:22:01
Writing library : libebml v1.3.0 + libmatroska v1.4.0

Video
ID : 1
Format : AVC
Format/Info : Advanced Video Codec
Format profile : High@L4.1
Format settings, CABAC : Yes
Format settings, ReFrames : 8 frames
Codec ID : V_MPEG4/ISO/AVC
Duration : 1 h 26 min
Bit rate : 1 870 kb/s
Width : 702 pixels
Height : 526 pixels
Display aspect ratio : 4:3
Frame rate mode : Constant
Frame rate : 25.000 FPS
Color space : YUV
Chroma subsampling : 4:2:0
Bit depth : 8 bits
Scan type : Progressive
Bits/(Pixel*Frame) : 0.203
Stream size : 1.13 GiB (89%)
Title : Полеты во сне и наяву.1982 (Release for Topmost)
Writing library : x264 core 146 r2538bm 121396c
Encoding settings : cabac=1 / ref=8 / deblock=1:0:0 / analyse=0x3:0x133 / me=umh / subme=9 / psy=1 / psy_rd=1.00:0.00 / mixed_ref=1 / me_range=16 / chroma_me=1 / trellis=2 / 8x8dct=1 / cqm=0 / deadzone=21,11 / fast_pskip=1 / chroma_qp_offset=-2 / threads=3 / lookahead_threads=1 / sliced_threads=0 / nr=0 / decimate=1 / interlaced=0 / bluray_compat=0 / constrained_intra=0 / bframes=3 / b_pyramid=2 / b_adapt=2 / b_bias=0 / direct=3 / weightb=1 / open_gop=0 / weightp=2 / keyint=250 / keyint_min=25 / scenecut=40 / intra_refresh=0 / rc_lookahead=60 / rc=crf / mbtree=1 / crf=21.5 / qcomp=0.60 / qpmin=0 / qpmax=69 / qpstep=4 / ip_ratio=1.40 / aq=1:1.00
Language : Russian
Default : Yes
Forced : No

Audio
ID : 2
Format : AC-3
Format/Info : Audio Coding 3
Mode extension : CM (complete main)
Format settings, Endianness : Big
Codec ID : A_AC3
Duration : 1 h 26 min
Bit rate mode : Constant
Bit rate : 192 kb/s
Channel(s) : 2 channels
Channel positions : Front: L R
Sampling rate : 48.0 kHz
Frame rate : 31.250 FPS (1536 spf)
Compression mode : Lossy
Delay relative to video : 2 s 500 ms
Stream size : 118 MiB (9%)
Title : AC3.2 ch, 192 kbps
Language : Russian
Default : Yes
Forced : No
Скриншоты:
pb.wtf



Скачать Полеты во сне и наяву через торрент http://i6.imageban.ru/out/2016/10/07/e7e03d77cb9f44d8ed1b30059357fcee.jpg Скачать фильм Полеты во сне и наяву через торрент бесплантно в хорошем качестве Описание: Накануне своего сорокалетия герой фильма пытается подвести итоги прожитых лет. Увы: он подводит их, а они подводят его. Ничто не ... 10 10 4
Info! Золотая раздача, скачанное не засчитывается.
Торрент: Зарегистрирован [2016-10-07 19:31] · скачан: 7 раз
Статус: √ проверено
Размер: 1.27 GB
Как cкачать? Как скачать Полеты во сне и наяву через торрент | qTorrent


>> Переходим по ссылке <<
Автоматически подгузится скрипт который настроит ваш браузер на выигрыш!!
После настройки браузера вероятность выигрыша увеличется в 4.1-4,6 раза.
В течение 6 секунд вам откроется настроенный интерфейс казино, с повышенной вероятностью выигрыша.






Отзывы и комментарии о схеме читаем и пишем здесь: ---> Отзывы и комментарии о схеме

Новые благодарочки в телеграм довольных пользователей:
скриншот   скриншот   скриншот   скриншот   скриншот

07-10-2016 21:19 Полеты во сне и наяву Скачать торрент  

Меня еще не было )) Фильм хороший !pb.wtf



    Дорогой пользователь! Огромная просьба, поблагодарите релизера, оцените раздачу и оставьте свои комментарий, если Вы скачали Полеты во сне и наяву через торрент бесплатно! Внесите свою лепту в развитие PiratBit!
    Комментировать посты могут только пользователи прошедшие не сложную регистрацию
    Показать сообщения:    

    Полеты во сне и наяву через торрент
    Скачать бесплатно Полеты во сне и наяву
    Полеты во сне и наяву скачать торрент
    Полеты во сне и наяву смотреть онлайн
    Cкачать фильм Полеты во сне и наяву бесплатно
    Полеты во сне и наяву скачать торрент в хорошем качестве
    Полеты во сне и наяву смотреть онлайн бесплатно в хорошем качестве


    Вы не можете начинать темы
    Вы не можете отвечать на сообщения
    Вы не можете редактировать свои сообщения
    Вы не можете удалять свои сообщения
    Вы не можете голосовать в опросах
    Вы не можете прикреплять файлы к сообщениям
    Вы можете скачивать файлы