Ссылка на приватное зеркало нашего сайта всего за 1$. Внимание количество ограничено!!!

2 сезон

iTunes

1 сезон

1

2 сезон

2 сезон

iTunes

1 сезон

RePack

30

Ultimate

ВАЖНО

ИГРА 18+

pack

RePack

MK11
pack

Забери бонус

RePack

jed

!!Акция!!

Alien_Rage

RePack

fifa19

RePack

Assassins Creed: Odyssey

RePack

NEED FOR SPEED™ PAYBACK

4 сезон

9 сезон

Бесстыжие 9 сезон

Все сериалы

все сериалы на PB.wtf

RePack

FAR CRY 5
  

Тоннель / Туннель / The Tunnel / Сезон 1 / Серии 1-10 из 10 (Томас Винсент / Thomas Vincent, Хетти Макдональд / Hettie Macdonald, Доминик Молль / Dominik Moll) [2013, Великобритания, Франция, триллер, драма, криминал, WEB-DLRip-AVC] MVO [BaibaKo] pb.wtf

Тоннель через торрент pb.wtf

Качают: 1 [ 0 KB/s ]
Размер: 8.59 GB | Добавлен: 4 года 1 мес. назад | Торрент скачан:80 раз
Скачать  

09-10-2016 03:06 Тоннель Скачать торрент  

Тоннель / Туннель / The Tunnel
«Who is TT?»


  • Год выпуска: 2013
  • Страна: Великобритания, Франция
  • Жанр: триллер, драма, криминал, детектив
  • Продолжительность: 00:46:04 (Серия)
  • Перевод: Профессиональный многоголосый [BaibaKo]
  • Режиссер: Томас Винсент / Thomas Vincent, Хетти Макдональд / Hettie Macdonald, Доминик Молль / Dominik Moll
  • В ролях:

    Стивен Диллэйн (Karl Roebuck), Клеманс Поэзи (Elise Wassermann), Сигрид Буази (Cécile Cabrillac), Тоби Бакаре (Chuks Akinade), Джек Лауден (Adam Roebuck), Энджел Колби (Laura Roebuck), Джеймс Фрейн (John Sumner), Седрик Виейра (Philippe Viot), Тибо де Монталембер (Olivier Pujol), Том Бейтман (Danny Hillier), Джозеф Моул (Stephen Beaumont), Жанна Балибар (Charlotte Joubert)


  • Британско-французская версия скандинавского хита "Мост". Ужасающая находка в Евротоннеле - точно на границе между Францией и Великобританией обнаружены части тел сразу двух жертв - известной французской политической деятельницы и британской проститутки. На место преступления прибывают детективы из обеих стран — французский инспектор Элиза Вассерман и англичанин Карл Робак. Как и в оригинальной скандинавской версии, полицейских ждёт шокирующее открытие, ведущее героев в непростой мир человеческих взаимоотношений, интриг и страстей.
  • Рейтинг:



  • Качество: WEB-DLRip-AVC
  • Формат: :MPEG-4
  • Видео кодек: AVC
  • Аудио кодек: AC3
  • Видео: 1024x576 (16:9), 1894 kbps, 25 fps, 0,128 bpp
  • Аудио №1: русский / 5.1 / 48 kHz / 384 kbps / 16 bit |[BaibaKo]|
  • Аудио №2: английский / 5.1 / 48 kHz / 384 kbps / 16 bit
  • Релиз от: GEKADOL

    General
    Complete name : H:\Тоннель (The Tunnel 1)\The.Tunnel.s01e10.WEB-DLRip-AVC.Rus.Eng.BaibaKo.tv.mp4
    Format : MPEG-4
    Format profile : Base Media
    Codec ID : isom (isom/iso2/avc1/mp41)
    File size : 879 MiB
    Duration : 46 min
    Overall bit rate : 2 667 kb/s
    Movie name : BaibaKo.tv presents - Тоннель 1х10
    Writing application : XviD4PSP 7.0.303 DAILY
    HDVideo : Yes
    encoding_info : MATROSKA / WEBM > MP4 Произвольный / H264 > X264 CBR 2000kbps HQ / AC3 > AC3 CBR 384kbps / AC3 > AC3 CBR 384kbps

    Video
    ID : 1
    Format : AVC
    Format/Info : Advanced Video Codec
    Format profile : High@L3.1
    Format settings, CABAC : Yes
    Format settings, ReFrames : 4 frames
    Codec ID : avc1
    Codec ID/Info : Advanced Video Coding
    Duration : 46 min
    Bit rate : 1 894 kb/s
    Nominal bit rate : 2 000 kb/s
    Width : 1 024 pixels
    Height : 576 pixels
    Display aspect ratio : 16:9
    Frame rate mode : Constant
    Frame rate : 25.000 FPS
    Color space : YUV
    Chroma subsampling : 4:2:0
    Bit depth : 8 bits
    Scan type : Progressive
    Bits/(Pixel*Frame) : 0.128
    Stream size : 624 MiB (71%)
    Writing library : x264 core 148 r2721M 72d53ab
    Encoding settings : cabac=1 / ref=3 / deblock=1:-1:-1 / analyse=0x3:0x133 / me=hex / subme=7 / psy=1 / psy_rd=1.00:0.20 / mixed_ref=1 / me_range=16 / chroma_me=1 / trellis=1 / 8x8dct=1 / cqm=0 / deadzone=21,11 / fast_pskip=1 / chroma_qp_offset=-3 / threads=5 / lookahead_threads=1 / sliced_threads=0 / nr=0 / decimate=1 / interlaced=0 / bluray_compat=0 / constrained_intra=0 / bframes=3 / b_pyramid=2 / b_adapt=2 / b_bias=0 / direct=3 / weightb=1 / open_gop=0 / weightp=2 / keyint=250 / keyint_min=25 / scenecut=40 / intra_refresh=0 / rc_lookahead=40 / rc=cbr / mbtree=1 / bitrate=2000 / ratetol=1.0 / qcomp=0.60 / qpmin=0 / qpmax=69 / qpstep=4 / vbv_maxrate=2000 / vbv_bufsize=2000 / nal_hrd=none / filler=0 / ip_ratio=1.40 / aq=1:1.00
    Language : English
    Color range : Limited
    Color primaries : BT.709
    Transfer characteristics : BT.709
    Matrix coefficients : BT.709

    Audio #1
    ID : 2
    Format : AC-3
    Format/Info : Audio Coding 3
    Mode extension : CM (complete main)
    Format settings, Endianness : Big
    Codec ID : ac-3
    Duration : 46 min
    Bit rate mode : Constant
    Bit rate : 384 kb/s
    Channel(s) : 6 channels
    Channel positions : Front: L C R, Side: L R, LFE
    Sampling rate : 48.0 kHz
    Frame rate : 31.250 FPS (1536 spf)
    Bit depth : 16 bits
    Compression mode : Lossy
    Stream size : 127 MiB (14%)
    Title : Rus BaibaKo.tv DD5.1 / Rus BaibaKo.tv DD5.1
    Language : Russian
    Default : Yes
    Alternate group : 1

    Audio #2
    ID : 3
    Format : AC-3
    Format/Info : Audio Coding 3
    Mode extension : CM (complete main)
    Format settings, Endianness : Big
    Codec ID : ac-3
    Duration : 46 min
    Bit rate mode : Constant
    Bit rate : 384 kb/s
    Channel(s) : 6 channels
    Channel positions : Front: L C R, Side: L R, LFE
    Sampling rate : 48.0 kHz
    Frame rate : 31.250 FPS (1536 spf)
    Bit depth : 16 bits
    Compression mode : Lossy
    Stream size : 127 MiB (14%)
    Title : Eng DD5.1 / Eng DD5.1
    Language : English
    Default : No
    Alternate group : 1



    Скриншоты:



    pb.wtf



  • Скачать Тоннель через торрент http://i78.fastpic.ru/big/2016/1008/ae/83bc4693e14928b2edef21d017c4b2ae.png Скачать фильм Тоннель через торрент бесплантно в хорошем качестве qw.png Британско-французская скандинавского хита "Мост". Ужасающая находка в Евротоннеле - точно на границе между Францией и ... 10 10 5
    Info! Золотая раздача, скачанное не засчитывается.
    Торрент: Зарегистрирован [2016-10-09 03:06] · скачан: 80 раз
    Статус: √ проверено
    Размер: 8.59 GB
    Как cкачать? Как скачать Тоннель через торрент | qTorrent

    28-11-2019 20:33  

    Отключить всю рекламу на сайте

    09-10-2016 10:38 Тоннель Скачать торрент  

      Дорогой пользователь! Огромная просьба, поблагодарите релизера, оцените раздачу и оставьте свои комментарий, если Вы скачали Тоннель через торрент бесплатно! Внесите свою лепту в развитие PiratBit!
      Комментировать посты могут только пользователи прошедшие не сложную регистрацию
      Показать сообщения:    

      Тоннель через торрент
      Скачать бесплатно Тоннель
      Тоннель скачать торрент
      Тоннель смотреть онлайн
      Cкачать фильм Тоннель бесплатно
      Тоннель скачать торрент в хорошем качестве
      Тоннель смотреть онлайн бесплатно в хорошем качестве


      Вы не можете начинать темы
      Вы не можете отвечать на сообщения
      Вы не можете редактировать свои сообщения
      Вы не можете удалять свои сообщения
      Вы не можете голосовать в опросах
      Вы не можете прикреплять файлы к сообщениям
      Вы можете скачивать файлы