Death Stranding+DLC+АВТОАКТИВАЦИЯ

iTunes

iTunes

iTunes

1

iTunes

iTunes

iTunes

iTunes

iTunes

30
pack

$ от Little Big

ВАЖНО

!!Акция!!

Alien_RageХит недели

RePack

Resident Evil 21

ИГРА 18+

pack

RePack

jed

!!Акция!!

Alien_Rage

RePack

fifa19

RePack

Assassins Creed: Odyssey

RePack

NEED FOR SPEED™ PAYBACK

4 сезон

9 сезон

Бесстыжие 9 сезон

Все сериалы

все сериалы на PB.wtf

RePack

FAR CRY 5
  

Сомнус / Somnus (Крис Рединг) [2015, фантастика, триллер, приключения, WEB-DL 720p] Любительский одноголосый [BadBajo] pb.wtf

Сомнус через торрент pb.wtf

Размер: 2.81 GB | Добавлен: 3 года 9 мес. назад | Торрент скачан:382 раза
Скачать  

09-10-2016 06:34 Сомнус Скачать торрент  

Сомнус / Somnus

Год выпуска: 2015
Страна: Великобритания
Жанр: фантастика, триллер, приключения
Продолжительность: 01:22:55
Перевод: Любительский одноголосый [BadBajo] Без рекламы
Субтитры: английские
Режиссер: Крис Рединг
В ролях:

Рохит Гокани (Rupert), Виктория Джейн Оливер (Emily), Robert Myler (Old Gentleman), Уэйн Сванн (Station Master), Tom Bonington (David Evans), Klemens Koehring (Stewart), Дженнифер Мойлан-Тейлор (Paula), Мак МакДональд (The Guardian), Даррен Хайэм (Medical Droid, озвучка), Дон МакКоркиндэйл (Professor, озвучка), Маркус МакМахон (Harry Emerson), Meryl Griffiths (Meryl)
Описание:
Экипаж устаревшего космического корабля отправляется на их заключительную миссию Земля-Марс. Но сбой в навигационном оборудовании приводит к тому, что маршрут изменяется и они прибывают в Сомнус, отдалённую астероидную колонию. Вскоре, команда обнаруживает, что жители этого места имеют некую тёмную тайну, а также планы, относительно будущего человечества.
Рейтинг:

Качество: WEB-DL 720p
Формат: MKV
Видео: AVC, 1280x528 (2.40:1), 3984 kbps, 23,976 fps, 0,246 bpp
Аудио №1: английский / AC3 / 5.1 / 48 kHz / 384 kbps /
Аудио №2: русский / AC3 / 5.1 / 48 kHz / 384 kbps / |VO|
Релиз от:
General
Unique ID : 183967937017387569054318769577807428686 (0x8A66EF953C1F76E794F6FACF2621BC4E)
Complete name : E:\Somnus.2016.720p.WEB-DL.DD5.1.H264_rus_BadBajo.mkv
Format : Matroska
Format version : Version 4 / Version 2
File size : 2.81 GiB
Duration : 1 h 22 min
Overall bit rate mode : Variable
Overall bit rate : 4 849 kb/s
Encoded date : UTC 2016-10-08 11:17:38
Writing application : mkvmerge v9.2.0 ('Photograph') 64bit
Writing library : libebml v1.3.3 + libmatroska v1.4.4

Video
ID : 1
Format : AVC
Format/Info : Advanced Video Codec
Format profile : Main@L3.1
Format settings, CABAC : Yes
Format settings, ReFrames : 2 frames
Codec ID : V_MPEG4/ISO/AVC
Duration : 1 h 22 min
Bit rate mode : Variable
Bit rate : 3 985 kb/s
Maximum bit rate : 768 kb/s
Width : 1 280 pixels
Height : 528 pixels
Display aspect ratio : 2.40:1
Frame rate mode : Constant
Frame rate : 23.976 (24000/1001) FPS
Color space : YUV
Chroma subsampling : 4:2:0
Bit depth : 8 bits
Scan type : Progressive
Bits/(Pixel*Frame) : 0.246
Stream size : 2.31 GiB (82%)
Language : English
Default : Yes
Forced : No

Audio #1
ID : 2
Format : AC-3
Format/Info : Audio Coding 3
Mode extension : CM (complete main)
Format settings, Endianness : Big
Codec ID : A_AC3
Duration : 1 h 22 min
Bit rate mode : Constant
Bit rate : 384 kb/s
Channel(s) : 6 channels
Channel positions : Front: L C R, Side: L R, LFE
Sampling rate : 48.0 kHz
Frame rate : 31.250 FPS (1536 spf)
Compression mode : Lossy
Stream size : 228 MiB (8%)
Language : English
Default : No
Forced : No

Audio #2
ID : 4
Format : AC-3
Format/Info : Audio Coding 3
Mode extension : CM (complete main)
Format settings, Endianness : Big
Codec ID : A_AC3
Duration : 1 h 22 min
Bit rate mode : Constant
Bit rate : 384 kb/s
Channel(s) : 6 channels
Channel positions : Front: L C R, Side: L R, LFE
Sampling rate : 48.0 kHz
Frame rate : 31.250 FPS (1536 spf)
Compression mode : Lossy
Stream size : 228 MiB (8%)
Language : Russian
Default : Yes
Forced : No

Text
ID : 3
Format : UTF-8
Codec ID : S_TEXT/UTF8
Codec ID/Info : UTF-8 Plain Text
Language : English
Default : Yes
Forced : No
pb.wtf



Скачать Сомнус через торрент http://i3.imageban.ru/out/2016/10/09/2c0d75e8cbec821edcfe2a2727d4ec49.jpg Скачать фильм Сомнус через торрент бесплантно в хорошем качестве Описание: Экипаж устаревшего космического корабля отправляется на их заключительную миссию Земля-Марс. Но сбой в навигационном оборудовании ... 9.5 10 8
Торрент: Зарегистрирован [2016-10-09 06:34] · скачан: 382 раз
Статус: T временная
Размер: 2.81 GB
Как cкачать? Как скачать Сомнус через торрент | qTorrent

28-11-2019 20:33  

Отключить всю рекламу на сайте

09-10-2016 10:54 Сомнус Скачать торрент  

как фильм ребята?pb.wtf



11-10-2016 14:52 Сомнус Скачать торрент  

ребята, как фильм?pb.wtf



    Дорогой пользователь! Огромная просьба, поблагодарите релизера, оцените раздачу и оставьте свои комментарий, если Вы скачали Сомнус через торрент бесплатно! Внесите свою лепту в развитие PiratBit!
    Комментировать посты могут только пользователи прошедшие не сложную регистрацию
    Показать сообщения:    

    Сомнус через торрент
    Скачать бесплатно Сомнус
    Сомнус скачать торрент
    Сомнус смотреть онлайн
    Cкачать фильм Сомнус бесплатно
    Сомнус скачать торрент в хорошем качестве
    Сомнус смотреть онлайн бесплатно в хорошем качестве


    Вы не можете начинать темы
    Вы не можете отвечать на сообщения
    Вы не можете редактировать свои сообщения
    Вы не можете удалять свои сообщения
    Вы не можете голосовать в опросах
    Вы не можете прикреплять файлы к сообщениям
    Вы можете скачивать файлы