Ссылка на приватное зеркало всего за 1$. Внимание количество ограничено!!!

iTunes

iTunes

iTunes

1

iTunes

iTunes

iTunes

iTunes

iTunes

30
pack

$ от Little Big

ВАЖНО

!!Акция!!

Alien_RageХит недели

RePack

Resident Evil 21

ИГРА 18+

pack

RePack

jed

!!Акция!!

Alien_Rage

RePack

fifa19

RePack

Assassins Creed: Odyssey

RePack

NEED FOR SPEED™ PAYBACK

4 сезон

9 сезон

Бесстыжие 9 сезон

Все сериалы

все сериалы на PB.wtf

RePack

FAR CRY 5
  

Октябрьское небо / October Sky (Джо Джонстон) [1999, драма, семейный, биография, WEB-DL 720p] DVO, MVO pb.wtf

Октябрьское небо через торрент pb.wtf

Раздают: 1 [ 0 KB/s ]
Размер: 3.64 GB | Добавлен: 3 года 9 мес. назад | Торрент скачан:78 раз
Скачать  

09-10-2016 08:12 Октябрьское небо Скачать торрент  

Октябрьское небо / October Sky«Фильм основан на реальных событиях»
Год выпуска: 1999
Страна: США
Жанр: драма, семейный, биография

Продолжительность: 01:47:30
Перевод: Профессиональный (двухголосый)- Премьер Видео, Профессиональный (многоголосый) - т/к Россия
Субтитры: английские (Full)
Режиссер: Джо Джонстон
В ролях:

Джейк Джилленхол (Homer Hickam), Лора Дерн (Miss Riley), Крис Купер (John Hickam), Крис Оуэн (Quentin), Уильям Ли Скотт (Roy Lee), Чэд Линдберг (O'Dell), Натали Кэнердей (Elsie Hickam), Скотт Томас (Jim Hickam), Рэнди Стриплинг (Leon Bolden), Крис Эллис (Principal Turner), Илья Баскин (Ike Bykovsky), Кортни Коул-Фендли (Dorothy Platt)
Описание:
В октябре 1957 года произошло событие эпохального значения. Советский Союз впервые в истории человечества запустил на земную орбиту первый «Спутник». Мир стал другим.
Рейтинг:

MPAA: PG - Рекомендуется присутствие родителей
Качество: WEB-DL 720p
Формат: MKV
Видео: AVC, 1280x546 (2.35:1), 3953 kbps, 23,976 fps, 0,236 bpp
Аудио №1: русский / AC3 / 2.0 / 48 kHz / 224 kbps / |DVO|
Аудио №2: русский / AC3 / 2.0 / 48 kHz / 192 kbps / |MVO|
Аудио №3: английский / AC3 / 5.1 / 48 kHz / 384 kbps /
Навигация по главам: есть
General
Unique ID : 222330030817062797508883276248771538949 (0xA74334D5E3FF865EB614A4BCAF213005)
Complete name : E:\October.Sky.1999.WEB.DL.720p.mkv
Format : Matroska
Format version : Version 4 / Version 2
File size : 3.64 GiB
Duration : 1 h 47 min
Overall bit rate : 4 850 kb/s
Movie name : October Sky (1999)
Encoded date : UTC 2015-07-17 15:39:15
Writing application : mkvmerge v8.1.0 ('Psychedelic Postcard') 64bit
Writing library : libebml v1.3.1 + libmatroska v1.4.2

Video
ID : 1
Format : AVC
Format/Info : Advanced Video Codec
Format profile : High@L3.1
Format settings, CABAC : No
Format settings, ReFrames : 2 frames
Codec ID : V_MPEG4/ISO/AVC
Duration : 1 h 47 min
Bit rate : 3 953 kb/s
Width : 1 280 pixels
Height : 546 pixels
Display aspect ratio : 2.35:1
Frame rate mode : Constant
Frame rate : 23.976 FPS
Color space : YUV
Chroma subsampling : 4:2:0
Bit depth : 8 bits
Scan type : Progressive
Bits/(Pixel*Frame) : 0.236
Stream size : 2.97 GiB (82%)
Title : October Sky (1999)
Language : English
Default : Yes
Forced : No
Color range : Limited
Color primaries : BT.709
Transfer characteristics : BT.709
Matrix coefficients : BT.709

Audio #1
ID : 2
Format : AC-3
Format/Info : Audio Coding 3
Mode extension : CM (complete main)
Format settings, Endianness : Big
Codec ID : A_AC3
Duration : 1 h 47 min
Bit rate mode : Constant
Bit rate : 224 kb/s
Channel(s) : 2 channels
Channel positions : Front: L R
Sampling rate : 48.0 kHz
Frame rate : 31.250 FPS (1536 spf)
Compression mode : Lossy
Stream size : 172 MiB (5%)
Title : AC3 2.0 ch @ 224 kbps - DVO (Премьер Видео)
Language : Russian
Default : Yes
Forced : No

Audio #2
ID : 3
Format : AC-3
Format/Info : Audio Coding 3
Mode extension : CM (complete main)
Format settings, Endianness : Big
Codec ID : A_AC3
Duration : 1 h 47 min
Bit rate mode : Constant
Bit rate : 192 kb/s
Channel(s) : 2 channels
Channel positions : Front: L R
Sampling rate : 48.0 kHz
Frame rate : 31.250 FPS (1536 spf)
Compression mode : Lossy
Stream size : 148 MiB (4%)
Title : AC3 2.0 ch @ 192 kbps - MVO (т/к Россия)
Language : Russian
Default : No
Forced : No

Audio #3
ID : 4
Format : AC-3
Format/Info : Audio Coding 3
Mode extension : CM (complete main)
Format settings, Endianness : Big
Codec ID : A_AC3
Duration : 1 h 47 min
Bit rate mode : Constant
Bit rate : 384 kb/s
Channel(s) : 6 channels
Channel positions : Front: L C R, Side: L R, LFE
Sampling rate : 48.0 kHz
Frame rate : 31.250 FPS (1536 spf)
Compression mode : Lossy
Stream size : 295 MiB (8%)
Title : AC3 5.1 ch @ 384 kbps
Language : English
Default : No
Forced : No

Text
ID : 5
Format : UTF-8
Codec ID : S_TEXT/UTF8
Codec ID/Info : UTF-8 Plain Text
Title : Full
Language : English
Default : No
Forced : No

Menu
00:00:00.000 : en:The Age of Sputnik
00:02:32.000 : en:The Coalwood Boy
00:09:07.000 : en:To Build a Rocket
00:17:50.000 : en:Stroke of Genius
00:25:21.000 : en:Cape Coalwood
00:34:37.000 : en:Rocket Roulette
00:38:12.000 : en:Splitting the Sky
00:41:14.000 : en:False Hopes
00:46:23.000 : en:Up in Smoke
00:53:16.000 : en:Valentine
00:54:44.000 : en:I Won't Shed a Tear
01:07:18.000 : en:A Life That Counts
01:12:32.000 : en:Search for AUK 13
01:21:28.000 : en:Strike
01:25:34.000 : en:Homer's in Trouble
01:29:21.000 : en:The Highest Honor
01:35:16.000 : en:This One's Yours
01:39:59.000 : en:Epilogue/Titles
pb.wtf



Скачать Октябрьское небо через торрент http://i1.imageban.ru/out/2016/10/09/b6eb0a10066f12eb2c695f5febec82fa.jpg Скачать фильм Октябрьское небо через торрент бесплантно в хорошем качестве Описание: В октябре 1957 года произошло событие эпохального значения. Советский Союз впервые в истории человечества запустил на земную ... 10 10 4
Info! Золотая раздача, скачанное не засчитывается.
Торрент: Зарегистрирован [2016-10-09 08:12] · скачан: 78 раз
Статус: √ проверено
Размер: 3.64 GB
Как cкачать? Как скачать Октябрьское небо через торрент | qTorrent

28-11-2019 20:33  

Отключить всю рекламу на сайте

    Дорогой пользователь! Огромная просьба, поблагодарите релизера, оцените раздачу и оставьте свои комментарий, если Вы скачали Октябрьское небо через торрент бесплатно! Внесите свою лепту в развитие PiratBit!
    Комментировать посты могут только пользователи прошедшие не сложную регистрацию
    Показать сообщения:    

    Октябрьское небо через торрент
    Скачать бесплатно Октябрьское небо
    Октябрьское небо скачать торрент
    Октябрьское небо смотреть онлайн
    Cкачать фильм Октябрьское небо бесплатно
    Октябрьское небо скачать торрент в хорошем качестве
    Октябрьское небо смотреть онлайн бесплатно в хорошем качестве


    Вы не можете начинать темы
    Вы не можете отвечать на сообщения
    Вы не можете редактировать свои сообщения
    Вы не можете удалять свои сообщения
    Вы не можете голосовать в опросах
    Вы не можете прикреплять файлы к сообщениям
    Вы можете скачивать файлы