новый адрес
Мега распродажа FORZA HORIZON 4 ULTIMATE+ВСЕ DLC+ОНЛАЙН всего за 499р. 349 руб. (супер цена). Внимание количество ограничено!!!

iTunes

1+1

iTunes

мы

iTunes

1

iTunes

Чернобыль

iTunes

Ральф против интернета

Лицензия

ПШазам

Лицензия

Игра престолов

Лицензия

30
pack

ВАЖНО

!!Акция!!

Alien_RageХит недели

RePack

Resident Evil 21

ИГРА 18+

pack

RePack

Metro:Exodus

!!Акция!!

Alien_Rage

RePack

fifa19

RePack

Assassins Creed: Odyssey

RePack

NEED FOR SPEED™ PAYBACK

3 сезон

9 сезон

Бесстыжие 9 сезон

Все сериалы

все сериалы на PB.wtf

RePack

FAR CRY 5
Ребята, катастрофически не хватает 1900р. для оплаты серверов за Октябрь (всвязи с блокировками трафик упал в 3 раза), 1-2р., выручайте.
  

Сердце Бонивура [4 серии] (Марк Орлов ) [1969, история, TVRip] pb.wtf

Сердце Бонивура через торрент pb.wtf

Размер: 2.86 GB | Добавлен: 3 года 1 мес. назад | Торрент скачан:8 раз
Скачать  

09-10-2016 09:12 Сердце Бонивура Скачать торрент  

Сердце Бонивура [4 серии]

Год выпуска: 1969
Страна: СССР
Жанр: история
Продолжительность: 01:04:27 | 01:03:15 | 01:03:27 | 00:52:58
Перевод: Не требуется [Русский]
Режиссер: Марк Орлов
В ролях: Лев Прыгунов (Виталий Бонивур), Борис Чирков (Стороженков), Иван Переверзев (Жилин), Виктор Коршунов (Любанский), Петр Глебов (Караев), Майя Булгакова (мать Насти), Евгений Буренков (Топорков), Герман Колушкин (Чекерда), Павел Волков (Верхотуров), Анатолий Юрченко (Алеша Пужняк), Юрий Лавров (Дитерихс), Владимир Дальский (Тачибана)
Описание:
Историко-революционный героико-приключенческий фильм. По одноименному роману Дмитрия Нагишкина.
О заключительном этапе борьбы за Советскую Влacть на Дальнем Востоке, о революционной молодежи тех героических лет.

Качество: TVRip
Формат: AVI
Видео: XviD, 656x480 (4:3), 1410 kbps, 25 fps, 0,179 bpp
Аудио: Русский / AC3 / 2.0 / 48 kHz / 192 kbps /
General
Complete name Сердце Бонивура (1969) [4серии]\Сердце Бонивура - 01 серия.avi
Format : AVI
Format/Info : Audio Video Interleave
File size : 743 MiB
Duration : 1 h 4 min
Overall bit rate : 1 612 kb/s
Movie name : Сердце Бонивура (1969)
Law rating : Unrated

Video
ID : 0
Format : MPEG-4 Visual
Format profile : Advanced Simple@L5
Format settings, BVOP : 1
Format settings, QPel : No
Format settings, GMC : No warppoints
Format settings, Matrix : Custom
Codec ID : XVID
Codec ID/Hint : XviD
Duration : 1 h 4 min
Bit rate : 1 411 kb/s
Width : 656 pixels
Height : 480 pixels
Display aspect ratio : 4:3
Frame rate : 25.000 FPS
Color space : YUV
Chroma subsampling : 4:2:0
Bit depth : 8 bits
Scan type : Progressive
Compression mode : Lossy
Bits/(Pixel*Frame) : 0.179
Stream size : 650 MiB (87%)
Writing library : XviD 1.2.1 (UTC 2008-12-04)

Audio
ID : 1
Format : AC-3
Format/Info : Audio Coding 3
Mode extension : CM (complete main)
Format settings, Endianness : Big
Codec ID : 2000
Duration : 1 h 4 min
Bit rate mode : Constant
Bit rate : 192 kb/s
Channel(s) : 2 channels
Channel positions : Front: L R
Sampling rate : 48.0 kHz
Frame rate : 31.250 FPS (1536 spf)
Compression mode : Lossy
Stream size : 88.5 MiB (12%)
Alignment : Aligned on interleaves
Interleave, duration : 40 ms (1.00 video frame)
Interleave, preload duration : 512 ms
Language : Русский
Скриншоты:
pb.wtf



Скачать Сердце Бонивура через торрент http://i6.imageban.ru/out/2016/10/09/04afbb7bfc34f2ee45d54a0dbd5c1a68.jpg Скачать фильм Сердце Бонивура [4 серии] через торрент бесплантно в хорошем качестве Описание: Историко-революционный героико-приключенческий фильм. По одноименному роману Дмитрия Нагишкина.О заключительном этапе борьбы за ... 10 10 5
Info! Золотая раздача, скачанное не засчитывается.
Торрент: Зарегистрирован [2016-10-09 09:12] · скачан: 8 раз
Статус: √ проверено
Размер: 2.86 GB
Как cкачать? Как скачать Сердце Бонивура через торрент | qTorrent

% Раздел Тема Автор DL S | L
Кино СССР [ 7.76 GB ] Сердце Бонивура [1971 военный история DVD5] Assasinca Скачать
1 | 0


>> Регистрируемся здесь <<






Отзывы и комментарии о схеме читаем и пишем здесь: ---> Отзывы и комментарии о схеме

Новые благодарочки в телеграм довольных пользователей:
скриншот   скриншот   скриншот   скриншот   скриншот
    Дорогой пользователь! Огромная просьба, поблагодарите релизера, оцените раздачу и оставьте свои комментарий, если Вы скачали Сердце Бонивура через торрент бесплатно! Внесите свою лепту в развитие PiratBit!
    Комментировать посты могут только пользователи прошедшие не сложную регистрацию
    Показать сообщения:    

    Сердце Бонивура через торрент
    Скачать бесплатно Сердце Бонивура
    Сердце Бонивура скачать торрент
    Сердце Бонивура смотреть онлайн
    Cкачать фильм Сердце Бонивура бесплатно
    Сердце Бонивура скачать торрент в хорошем качестве
    Сердце Бонивура смотреть онлайн бесплатно в хорошем качестве


    Вы не можете начинать темы
    Вы не можете отвечать на сообщения
    Вы не можете редактировать свои сообщения
    Вы не можете удалять свои сообщения
    Вы не можете голосовать в опросах
    Вы не можете прикреплять файлы к сообщениям
    Вы можете скачивать файлы