Ссылка на приватное зеркало нашего сайта всего за 1$. Внимание количество ограничено!!!

2 сезон

iTunes

1 сезон

1

2 сезон

2 сезон

iTunes

1 сезон

RePack

30

Ultimate

ВАЖНО

ИГРА 18+

pack

RePack

MK11
pack

Забери бонус

RePack

jed

!!Акция!!

Alien_Rage

RePack

fifa19

RePack

Assassins Creed: Odyssey

RePack

NEED FOR SPEED™ PAYBACK

4 сезон

9 сезон

Бесстыжие 9 сезон

Все сериалы

все сериалы на PB.wtf

RePack

FAR CRY 5
  

Гавайи 5.0 / Hawaii Five-0 / Сезон: 7 / Серии: 1-24 из 25 (Брайан Спайсер, Ларри Тенг, Стив Бойум) [2016 г., боевик, драма, криминал, HDTVRip] Любительский (двухголосый) [Sunshine Studio] pb.wtf

Гавайи 5.0 через торрент pb.wtf

Размер: 12 GB | Добавлен: 3 года 6 мес. назад | Торрент скачан:11 раз
Скачать  

09-10-2016 09:56 Гавайи 5.0 Скачать торрент  

Гавайи 5.0 / Hawaii Five-0Сезон: 7 / Cерии: 1-24 из 25
Год выпуска: 2016

Страна: США
Жанр: боевик, драма, криминал

Продолжительность: 24х ~00:44:03
Перевод: Любительский (двухголосый) [Sunshine Studio]
Примечание: Присутствует реклама!
В ролях:

Алекс О’Локлин (Steve McGarrett), Дэниэл Дэ Ким (Chin Ho Kelly), Грейс Пак (Kono Kalakaua), Скотт Каан (Danny Williams), Маси Ока (Max Bergman), Тайлор Уайли (Kamekona), Чи МакБрайд (Lou Grover), Дэннис Чун (Sgt. Duke Lukela), Хорхе Гарсиа (Jerry Ortega), Мишель Борт (Catherine Rollins), Тейлор Груббс (Grace Williams), Брайан Янг (Charlie Fong)
Описание:
Детектив Стив МакГарретт, бывший морской офицер с массой наград, а теперь полицейский, возвращается в Оаху расследовать убийство отца. Он остается на острове, после того, как губернатор штата Гавайи убедил его возглавить новую команду. Команда будет действовать по его правилам, при поддержке губернатора, без бюрократических проволочек, и с полным иммунитетом, все это - чтобы поймать самую крупную «дичь» в городе.
Рейтинг:

Качество: HDTVRip
Формат: AVI
Видео: XviD, 720x400 (16:9), 1399 kbps, 23,976 fps, 0,203 bpp
Аудио: AC3 / 2.0 / 48 kHz / 192 kbps /

General
Complete name : E:\Hawaii.Five-0.S07.400p.SunshineStudio\Hawaii.Five-0.2010.S07E01.400p.SunshineStudio.avi
Format : AVI
Format/Info : Audio Video Interleave
File size : 505 MiB
Duration : 44 min
Overall bit rate : 1 601 kb/s
Writing application : VirtualDubMod 1.5.10.3 | www.virtualdub-fr.org || (build 2550/release)
Writing library : VirtualDubMod build 2550/release

Video
ID : 0
Format : MPEG-4 Visual
Format profile : Advanced Simple@L5
Format settings, BVOP : 2
Format settings, QPel : No
Format settings, GMC : No warppoints
Format settings, Matrix : Default (H.263)
Muxing mode : Packed bitstream
Codec ID : XVID
Codec ID/Hint : XviD
Duration : 44 min
Bit rate : 1 399 kb/s
Width : 720 pixels
Height : 400 pixels
Display aspect ratio : 16:9
Frame rate : 23.976 (23976/1000) FPS
Color space : YUV
Chroma subsampling : 4:2:0
Bit depth : 8 bits
Scan type : Progressive
Compression mode : Lossy
Bits/(Pixel*Frame) : 0.203
Stream size : 441 MiB (87%)
Writing library : XviD 1.2.1 (UTC 2008-12-04)

Audio
ID : 1
Format : AC-3
Format/Info : Audio Coding 3
Mode extension : CM (complete main)
Format settings, Endianness : Big
Codec ID : 2000
Duration : 44 min
Bit rate mode : Constant
Bit rate : 192 kb/s
Channel(s) : 2 channels
Channel positions : Front: L R
Sampling rate : 48.0 kHz
Frame rate : 31.250 FPS (1536 spf)
Compression mode : Lossy
Stream size : 60.5 MiB (12%)
Alignment : Split accross interleaves
Interleave, duration : 42 ms (1.00 video frame)
Interleave, preload duration : 500 ms
Внимание! Раздача ведётся путём добавления новых серий; при каждом добавлении создаётся новый торрент-файл. Чтобы начать дозакачку новой серии, пользователям необходимо сделать следующее:
(1) остановить скачивание,
(2) удалить старый торрент-файл у себя из клиента (старые серии удалять не надо),
(3) скачать новый торрент-файл и запустить его у себя в клиенте вместо старого, при этом указать клиенту путь в старую папку куда и должно происходить скачивание новых серий.
Ваш клиент при этом должен произвести хеширование (проверку) старой папки (если не производит сам - помогите ему сделать это), и будет докачивать только те серии которых у вас ещё нет. Старые серии при этом не удаляются, а продолжают раздаваться!
Eсли вы уже удалили старые серии, то предотвратить повторную закачку старых серий можно, отжав галочку в соответствующих местах при запуске нового торрента.
pb.wtf



Скачать Гавайи 5.0 через торрент http://i1.imageban.ru/out/2016/10/09/083a24f0eb59378113602fd9ac677f55.jpg Скачать фильм Гавайи 5.0 через торрент бесплантно в хорошем качестве Описание: Детектив Стив МакГарретт, бывший морской офицер с массой наград, а теперь полицейский, возвращается в Оаху расследовать убийство ... 8.3 10 9
× Info от релизера! Добавлены 20-24 серии
Info! Серебряная раздача, засчитывается только 50% скачанного.
Торрент: Зарегистрирован [2017-05-07 15:24] · скачан: 11 раз
Статус: √ проверено
Размер: 12 GB
Как cкачать? Как скачать Гавайи 5.0 через торрент | qTorrent

28-11-2019 20:33  

Отключить всю рекламу на сайте

    Дорогой пользователь! Огромная просьба, поблагодарите релизера, оцените раздачу и оставьте свои комментарий, если Вы скачали Гавайи 5.0 через торрент бесплатно! Внесите свою лепту в развитие PiratBit!
    Комментировать посты могут только пользователи прошедшие не сложную регистрацию
    Показать сообщения:    

    Гавайи 5.0 через торрент
    Скачать бесплатно Гавайи 5.0
    Гавайи 5.0 скачать торрент
    Гавайи 5.0 смотреть онлайн
    Cкачать фильм Гавайи 5.0 бесплатно
    Гавайи 5.0 скачать торрент в хорошем качестве
    Гавайи 5.0 смотреть онлайн бесплатно в хорошем качестве


    Вы не можете начинать темы
    Вы не можете отвечать на сообщения
    Вы не можете редактировать свои сообщения
    Вы не можете удалять свои сообщения
    Вы не можете голосовать в опросах
    Вы не можете прикреплять файлы к сообщениям
    Вы можете скачивать файлы