новый адрес
Ссылка на приватное зеркало всего за 1$. Внимание количество ограничено!!!

iTunes

1+1

iTunes

мы

iTunes

1

iTunes

Чернобыль

iTunes

Ральф против интернета

Лицензия

ПШазам

Лицензия

Оно 2

Лицензия

30
pack

Вам бонус

ВАЖНО

!!Акция!!

Alien_RageХит недели

RePack

Resident Evil 21

ИГРА 18+

pack

RePack

jed

!!Акция!!

Alien_Rage

RePack

fifa19

RePack

Assassins Creed: Odyssey

RePack

NEED FOR SPEED™ PAYBACK

3 сезон

9 сезон

Бесстыжие 9 сезон

Все сериалы

все сериалы на PB.wtf

RePack

FAR CRY 5
Ребята, катастрофически не хватает 1900р. для оплаты серверов за Октябрь (всвязи с блокировками трафик упал в 3 раза), 1-2р., выручайте.
  

Идиот (Иван Пырьев) [1958, драма, DVDRip-AVC] pb.wtf

Идиот через торрент pb.wtf

Размер: 1.43 GB | Добавлен: 3 года 1 мес. назад | Торрент скачан:5 раз
Скачать  

09-10-2016 11:54 Идиот Скачать торрент  

Идиот

Год выпуска: 1958
Страна: СССР
Жанр: драма

Продолжительность: 01:55:59
Перевод: Не требуется [Русский]
Режиссер: Иван Пырьев
В ролях: Юрий Яковлев (Мышкин), Юлия Борисова (Настасья Филипповна), Никита Подгорный (Ганя Иволгин), Вера Пашенная (жена генерала), Николай Пажитнов (генерал Епанчин), Сергей Мартинсон (Лебедев), Леонид Пархоменко (Парфен Рогожин), Эммануил Геллер, Раиса Максимова (Аглая Епанчина), Владимир Муравьев (Фердищенко), Иван Любезнов (генерал Иволгин), Григорий Шпигель
Описание:
Фильм рассказывает о возвращении в Россию после лечения князя Льва Николаевича Мышкина, его появлении в доме Епанчиных и знакомстве с необыкновенной женщиной Настасьей Филипповной, чей облик с первой секунды поражает князя.

Качество: DVDRip-AVC
Формат: MKV
Видео: AVC, 720x520 (1.385), 1500 kbps, 25 fps, 0,160 bpp
Аудио: русский / AC3 / 2.0 / 48 kHz / 256 kbps /

General
Unique ID Идиот.mkv
Format : Matroska
Format version : Version 4 / Version 2
File size : 1.43 GiB
Duration : 1 h 55 min
Overall bit rate : 1 762 kb/s
Movie name : Идиот 1958 (rip by smithland)
Encoded date : UTC 2016-02-02 16:04:56
Writing application : mkvmerge v8.5.2 ('Crosses') 64bit
Writing library : libebml v1.3.3 + libmatroska v1.4.4
Cover : Yes
Attachments : COVER.jpg

Video
ID : 1
Format : AVC
Format/Info : Advanced Video Codec
Format profile : High@L4
Format settings, CABAC : Yes
Format settings, ReFrames : 10 frames
Codec ID : V_MPEG4/ISO/AVC
Duration : 1 h 55 min
Bit rate : 1 500 kb/s
Width : 720 pixels
Height : 520 pixels
Display aspect ratio : 1.385
Frame rate mode : Constant
Frame rate : 25.000 FPS
Color space : YUV
Chroma subsampling : 4:2:0
Bit depth : 8 bits
Scan type : Progressive
Bits/(Pixel*Frame) : 0.160
Stream size : 1.22 GiB (85%)
Writing library : x264 core 146 r2538 121396c
Encoding settings : cabac=1 / ref=10 / deblock=1:-1:-1 / analyse=0x3:0x133 / me=umh / subme=11 / psy=1 / psy_rd=1.25:0.30 / mixed_ref=1 / me_range=30 / chroma_me=1 / trellis=2 / 8x8dct=1 / cqm=0 / deadzone=21,11 / fast_pskip=1 / chroma_qp_offset=-4 / threads=12 / lookahead_threads=1 / sliced_threads=0 / nr=0 / decimate=0 / interlaced=0 / bluray_compat=0 / constrained_intra=0 / bframes=7 / b_pyramid=2 / b_adapt=1 / b_bias=0 / direct=1 / weightb=1 / open_gop=1 / weightp=2 / keyint=250 / keyint_min=25 / scenecut=40 / intra_refresh=0 / rc_lookahead=40 / rc=abr / mbtree=1 / bitrate=1500 / ratetol=1.0 / qcomp=0.60 / qpmin=0 / qpmax=69 / qpstep=4 / ip_ratio=1.40 / aq=1:1.20
Language : Russian
Default : Yes
Forced : Yes
Color range : Limited
Color primaries : Generic film

Audio
ID : 2
Format : AC-3
Format/Info : Audio Coding 3
Mode extension : CM (complete main)
Format settings, Endianness : Big
Codec ID : A_AC3
Duration : 1 h 55 min
Bit rate mode : Constant
Bit rate : 256 kb/s
Channel(s) : 2 channels
Channel positions : Front: L R
Sampling rate : 48.0 kHz
Frame rate : 31.250 FPS (1536 spf)
Compression mode : Lossy
Stream size : 212 MiB (15%)
Language : Russian
Default : Yes
Forced : Yes
Скриншоты:
pb.wtf



Скачать Идиот через торрент http://i4.imageban.ru/out/2016/10/09/2ec0c06e6e79d0ae2eb4f45318657b9e.jpg Скачать фильм Идиот через торрент бесплантно в хорошем качестве Описание: Фильм рассказывает о возвращении в Россию после лечения князя Льва Николаевича Мышкина, его появлении в доме Епанчиных и ... 10 10 2
Info! Золотая раздача, скачанное не засчитывается.
Торрент: Зарегистрирован [2016-10-09 11:54] · скачан: 5 раз
Статус: √ проверено
Размер: 1.43 GB
Как cкачать? Как скачать Идиот через торрент | qTorrent

% Раздел Тема Автор DL S | L
Психология [ 547 MB ] Курпатов Андрей - Чертоги разума. Убей в себе идиота! [Федоров Александр 2019 128 kbps MP3] bober100 Скачать
1 | 0
Порно фильмы без сюжета [ 2.03 GB ] Оттрахай Меня Идиот 5 / Fuck Me Silly 5 [2019 All Sex WEB-DL] bashai5 Скачать
2 | 0
T Фильмы 2018 [DVDrip, WEB-DLRip, HDrip] (DUB, MVO) [ 1.61 GB ] Долгая идиотская дорога / The Long Dumb Road [2018 BDRip-AVC] MVO [HDRezka Studio] bober100 Скачать
2 | 0
Индийское кино [ 2.05 GB ] 3 идиота / 3 idiots [2009 HDRip] dominikanets Скачать
1 | 0
Гонзо [ 1.63 GB ] Трахни Меня Идиот vol. 2 / Fuck Me Silly vol. 2 [2017 Gonzo DVDRip Оригинальный] DJASFUL Скачать
1 | 0
Гонзо [ 1.8 GB ] Оттрахай Меня Идиот 2 / Fuck Me Silly 2 [2017 All Sex Oral Gonzo Facial Threesome Big Tits WEB-DLRip 480p] Split Scenes sheker187 Скачать
1 | 0
Кино СССР [ 2.18 GB ] Идиот [1958 СССР DVDRip-AVC от AVP Studio] AVP Studio Скачать
1 | 0
    Дорогой пользователь! Огромная просьба, поблагодарите релизера, оцените раздачу и оставьте свои комментарий, если Вы скачали Идиот через торрент бесплатно! Внесите свою лепту в развитие PiratBit!
    Комментировать посты могут только пользователи прошедшие не сложную регистрацию
    Показать сообщения:    

    Идиот через торрент
    Скачать бесплатно Идиот
    Идиот скачать торрент
    Идиот смотреть онлайн
    Cкачать фильм Идиот бесплатно
    Идиот скачать торрент в хорошем качестве
    Идиот смотреть онлайн бесплатно в хорошем качестве


    Вы не можете начинать темы
    Вы не можете отвечать на сообщения
    Вы не можете редактировать свои сообщения
    Вы не можете удалять свои сообщения
    Вы не можете голосовать в опросах
    Вы не можете прикреплять файлы к сообщениям
    Вы можете скачивать файлы