новый адрес пиратбит piratbit
Мега распродажа FORZA HORIZON 4 ULTIMATE+ВСЕ DLC+ОНЛАЙН всего за 499р. 349 руб. (супер цена). Внимание количество ограничено!!!

iTunes

1+1

iTunes

мы

iTunes

1

iTunes

Чернобыль

iTunes

Ральф против интернета

Лицензия

ПШазам

Лицензия

Игра престолов

Лицензия

30
pack

ВАЖНО

!!Акция!!

Alien_RageХит недели

RePack

Resident Evil 21

ИГРА 18+

pack

RePack

Metro:Exodus

!!Акция!!

Alien_Rage

RePack

fifa19

RePack

Assassins Creed: Odyssey

RePack

NEED FOR SPEED™ PAYBACK

3 сезон

9 сезон

Бесстыжие 9 сезон

Все сериалы

все сериалы на PB.wtf

RePack

FAR CRY 5
Ребята, катастрофически не хватает 1900р. для оплаты серверов за Октябрь (всвязи с блокировками трафик упал в 3 раза), 1-2р., выручайте.
  

Почти смешная история (2 серии) (Петр Фоменко ) [1977, мелодрама, комедия, SATRip-AVC] pb.wtf

Почти смешная история через торрент pb.wtf

Размер: 2.03 GB | Добавлен: 3 года 1 мес. назад | Торрент скачан:19 раз
Скачать  

09-10-2016 13:04 Почти смешная история Скачать торрент  

Почти смешная история (2 серии)

Год выпуска: 1977
Страна: СССР
Жанр: мелодрама, комедия

Продолжительность: 02:22:58
Перевод: Не требуется [Русский]
Режиссер: Петр Фоменко
В ролях: Ольга Антонова (Иллария Павловна Алсуфьева), Людмила Аринина (Таисия Павловна Алсуфьева), Михаил Глузский (Виктор Михайлович Мешков), Михаил Данилов (Лазаренко), Мария Великанова (Маня), Владимир Пучков (Толя), Светлана Харитонова (проводница), Валентин Гафт (попутчик в поезде), Людмила Полякова (клиентка в парикмахерской), Мария Миронова (работница телеграфа), Зинаида Дьяконова (седая дама), Андрей Думиника (пожилой постоялец)
Описание:
История любви двух уже немолодых людей. Две сестры приезжают в маленький город на Волге отдохнуть. Одной - около пятидесяти, другая чуть моложе. В гостинице они знакомятся с самым обычным командировочным, который совершенно не понимает, что младшая из сестер, немного чудаковатая, влюбилась в него с первого взгляда.

Качество: SATRip-AVC
Формат: MKV
Видео: AVC, 712@759x576 (4:3), 1802 kbps, 25 fps, 0,176 bpp
Аудио: русский / AC3 / 2.0 / 48 kHz / 192 kbps /
Навигация по главам: есть

General
Unique ID Почти смешная история.1977.mkv
Format : Matroska
Format version : Version 2
File size : 2.03 GiB
Duration : 2 h 22 min
Overall bit rate : 2 035 kb/s
Encoded date : UTC 2016-10-05 21:01:04
Writing application : mkvmerge v5.8.0 ('No Sleep / Pillow') built on Sep 2 2012 15:37:04
Writing library : libebml v1.2.3 + libmatroska v1.3.0
Comment : SATRip-AVC
Encoded by : george$t®
Originally released : October 4th 2016

Video
ID : 1
Format : AVC
Format/Info : Advanced Video Codec
Format profile : High@L4.1
Format settings, CABAC : Yes
Format settings, ReFrames : 16 frames
Codec ID : V_MPEG4/ISO/AVC
Duration : 2 h 22 min
Bit rate : 1 802 kb/s
Width : 712 pixels
Height : 576 pixels
Display aspect ratio : 4:3
Original display aspect ratio : 4:3
Frame rate mode : Constant
Frame rate : 25.000 FPS
Color space : YUV
Chroma subsampling : 4:2:0
Bit depth : 8 bits
Scan type : Progressive
Bits/(Pixel*Frame) : 0.176
Stream size : 1.80 GiB (89%)
Title : Почти смешная история.1977
Writing library : x264 core 148 r2721kMod 72d53ab
Encoding settings : cabac=1 / ref=16 / deblock=1:-2:-1 / analyse=0x3:0x133 / me=umh / subme=10 / psy=1 / fade_compensate=0.00 / psy_rd=1.03:0.05 / mixed_ref=1 / me_range=32 / chroma_me=1 / trellis=2 / 8x8dct=1 / cqm=0 / deadzone=21,11 / fast_pskip=0 / chroma_qp_offset=-3 / threads=12 / lookahead_threads=2 / sliced_threads=0 / nr=0 / decimate=0 / interlaced=0 / bluray_compat=0 / constrained_intra=0 / fgo=0 / bframes=7 / b_pyramid=2 / b_adapt=2 / b_bias=0 / direct=3 / weightb=1 / open_gop=0 / weightp=2 / keyint=250 / keyint_min=25 / scenecut=40 / intra_refresh=0 / rc_lookahead=50 / rc=crf / mbtree=0 / crf=18.9000 / qcomp=0.65 / qpmin=0 / qpmax=69 / qpstep=4 / vbv_maxrate=50000 / vbv_bufsize=62500 / crf_max=0.0 / nal_hrd=none / filler=0 / ip_ratio=1.45 / pb_ratio=1.30 / aq=3:0.80
Language : Russian
Default : Yes
Forced : No
Color range : Limited
Color primaries : BT.601 PAL
Transfer characteristics : BT.470 System B, BT.470 System G
Matrix coefficients : BT.601

Audio
ID : 2
Format : AC-3
Format/Info : Audio Coding 3
Mode extension : CM (complete main)
Format settings, Endianness : Big
Codec ID : A_AC3
Duration : 2 h 22 min
Bit rate mode : Constant
Bit rate : 192 kb/s
Channel(s) : 2 channels
Channel positions : Front: L R
Sampling rate : 48.0 kHz
Frame rate : 31.250 FPS (1536 spf)
Compression mode : Lossy
Stream size : 196 MiB (9%)
Title : AC-3; 16 bit 48 Khz; 2.0 ch 192 Kbps; CBR
Language : Russian
Default : Yes
Forced : No

Menu
00:00:00.000 : ru:1 серия
01:08:37.880 : ru:2 серия
Скриншоты:
pb.wtf



Скачать Почти смешная история через торрент http://i3.imageban.ru/out/2016/10/09/5e2645bdc1523ac0400581779cd56664.jpg Скачать фильм Почти смешная история через торрент бесплантно в хорошем качестве Описание: История любви двух уже немолодых людей. Две сестры приезжают в маленький город на Волге отдохнуть. Одной - около пятидесяти, ... 10 10 1
Info! Золотая раздача, скачанное не засчитывается.
Торрент: Зарегистрирован [2016-10-09 13:04] · скачан: 19 раз
Статус: √ проверено
Размер: 2.03 GB
Как cкачать? Как скачать Почти смешная история через торрент | qTorrent


>> Регистрируемся здесь <<






Отзывы и комментарии о схеме читаем и пишем здесь: ---> Отзывы и комментарии о схеме

Новые благодарочки в телеграм довольных пользователей:
скриншот   скриншот   скриншот   скриншот   скриншот
    Дорогой пользователь! Огромная просьба, поблагодарите релизера, оцените раздачу и оставьте свои комментарий, если Вы скачали Почти смешная история через торрент бесплатно! Внесите свою лепту в развитие PiratBit!
    Комментировать посты могут только пользователи прошедшие не сложную регистрацию
    Показать сообщения:    

    Почти смешная история через торрент
    Скачать бесплатно Почти смешная история
    Почти смешная история скачать торрент
    Почти смешная история смотреть онлайн
    Cкачать фильм Почти смешная история бесплатно
    Почти смешная история скачать торрент в хорошем качестве
    Почти смешная история смотреть онлайн бесплатно в хорошем качестве


    Вы не можете начинать темы
    Вы не можете отвечать на сообщения
    Вы не можете редактировать свои сообщения
    Вы не можете удалять свои сообщения
    Вы не можете голосовать в опросах
    Вы не можете прикреплять файлы к сообщениям
    Вы можете скачивать файлы